  0
SECTION
  2
HEADER
  9
$ACADVER
  1
AC1015
  9
$ACADMAINTVER
 70
     6
  9
$DWGCODEPAGE
  3
ANSI_1252
  9
$INSBASE
 10
0.0
 20
0.0
 30
0.0
  9
$EXTMIN
 10
-105.0000000000001
 20
0.0
 30
0.0
  9
$EXTMAX
 10
0.0
 20
148.5000000000001
 30
0.0
  9
$LIMMIN
 10
0.0
 20
0.0
  9
$LIMMAX
 10
12.0
 20
9.0
  9
$ORTHOMODE
 70
     0
  9
$REGENMODE
 70
     1
  9
$FILLMODE
 70
     1
  9
$QTEXTMODE
 70
     0
  9
$MIRRTEXT
 70
     1
  9
$LTSCALE
 40
1.0
  9
$ATTMODE
 70
     1
  9
$TEXTSIZE
 40
0.2
  9
$TRACEWID
 40
0.05
  9
$TEXTSTYLE
  7
Standard
  9
$CLAYER
  8
0
  9
$CELTYPE
  6
ByLayer
  9
$CECOLOR
 62
   256
  9
$CELTSCALE
 40
1.0
  9
$DISPSILH
 70
     0
  9
$DIMSCALE
 40
1.0
  9
$DIMASZ
 40
0.18
  9
$DIMEXO
 40
0.0625
  9
$DIMDLI
 40
0.38
  9
$DIMRND
 40
0.0
  9
$DIMDLE
 40
0.0
  9
$DIMEXE
 40
0.18
  9
$DIMTP
 40
0.0
  9
$DIMTM
 40
0.0
  9
$DIMTXT
 40
0.18
  9
$DIMCEN
 40
0.09
  9
$DIMTSZ
 40
0.0
  9
$DIMTOL
 70
     0
  9
$DIMLIM
 70
     0
  9
$DIMTIH
 70
     1
  9
$DIMTOH
 70
     1
  9
$DIMSE1
 70
     0
  9
$DIMSE2
 70
     0
  9
$DIMTAD
 70
     0
  9
$DIMZIN
 70
     0
  9
$DIMBLK
  1

  9
$DIMASO
 70
     1
  9
$DIMSHO
 70
     1
  9
$DIMPOST
  1

  9
$DIMAPOST
  1

  9
$DIMALT
 70
     0
  9
$DIMALTD
 70
     2
  9
$DIMALTF
 40
25.4
  9
$DIMLFAC
 40
1.0
  9
$DIMTOFL
 70
     0
  9
$DIMTVP
 40
0.0
  9
$DIMTIX
 70
     0
  9
$DIMSOXD
 70
     0
  9
$DIMSAH
 70
     0
  9
$DIMBLK1
  1

  9
$DIMBLK2
  1

  9
$DIMSTYLE
  2
Standard
  9
$DIMCLRD
 70
     0
  9
$DIMCLRE
 70
     0
  9
$DIMCLRT
 70
     0
  9
$DIMTFAC
 40
1.0
  9
$DIMGAP
 40
0.09
  9
$DIMJUST
 70
     0
  9
$DIMSD1
 70
     0
  9
$DIMSD2
 70
     0
  9
$DIMTOLJ
 70
     1
  9
$DIMTZIN
 70
     0
  9
$DIMALTZ
 70
     0
  9
$DIMALTTZ
 70
     0
  9
$DIMUPT
 70
     0
  9
$DIMDEC
 70
     4
  9
$DIMTDEC
 70
     4
  9
$DIMALTU
 70
     2
  9
$DIMALTTD
 70
     2
  9
$DIMTXSTY
  7
Standard
  9
$DIMAUNIT
 70
     0
  9
$DIMADEC
 70
     0
  9
$DIMALTRND
 40
0.0
  9
$DIMAZIN
 70
     0
  9
$DIMDSEP
 70
    46
  9
$DIMATFIT
 70
     3
  9
$DIMFRAC
 70
     0
  9
$DIMLDRBLK
  1

  9
$DIMLUNIT
 70
     2
  9
$DIMLWD
 70
    -2
  9
$DIMLWE
 70
    -2
  9
$DIMTMOVE
 70
     0
  9
$LUNITS
 70
     2
  9
$LUPREC
 70
     4
  9
$SKETCHINC
 40
0.1
  9
$FILLETRAD
 40
0.5
  9
$AUNITS
 70
     0
  9
$AUPREC
 70
     0
  9
$MENU
  1
.
  9
$ELEVATION
 40
0.0
  9
$PELEVATION
 40
0.0
  9
$THICKNESS
 40
0.0
  9
$LIMCHECK
 70
     0
  9
$CHAMFERA
 40
0.5
  9
$CHAMFERB
 40
0.5
  9
$CHAMFERC
 40
1.0
  9
$CHAMFERD
 40
0.0
  9
$SKPOLY
 70
     0
  9
$TDCREATE
 40
2456997.424382905
  9
$TDUCREATE
 40
2456997.382716238
  9
$TDUPDATE
 40
2456997.42438309
  9
$TDUUPDATE
 40
2456997.382716424
  9
$TDINDWG
 40
0.0000000116
  9
$TDUSRTIMER
 40
0.0000000116
  9
$USRTIMER
 70
     1
  9
$ANGBASE
 50
0.0
  9
$ANGDIR
 70
     0
  9
$PDMODE
 70
     0
  9
$PDSIZE
 40
0.0
  9
$PLINEWID
 40
0.0
  9
$SPLFRAME
 70
     0
  9
$SPLINETYPE
 70
     6
  9
$SPLINESEGS
 70
     8
  9
$HANDSEED
  5
394
  9
$SURFTAB1
 70
     6
  9
$SURFTAB2
 70
     6
  9
$SURFTYPE
 70
     6
  9
$SURFU
 70
     6
  9
$SURFV
 70
     6
  9
$UCSBASE
  2

  9
$UCSNAME
  2

  9
$UCSORG
 10
0.0
 20
0.0
 30
0.0
  9
$UCSXDIR
 10
1.0
 20
0.0
 30
0.0
  9
$UCSYDIR
 10
0.0
 20
1.0
 30
0.0
  9
$UCSORTHOREF
  2

  9
$UCSORTHOVIEW
 70
     0
  9
$UCSORGTOP
 10
0.0
 20
0.0
 30
0.0
  9
$UCSORGBOTTOM
 10
0.0
 20
0.0
 30
0.0
  9
$UCSORGLEFT
 10
0.0
 20
0.0
 30
0.0
  9
$UCSORGRIGHT
 10
0.0
 20
0.0
 30
0.0
  9
$UCSORGFRONT
 10
0.0
 20
0.0
 30
0.0
  9
$UCSORGBACK
 10
0.0
 20
0.0
 30
0.0
  9
$PUCSBASE
  2

  9
$PUCSNAME
  2

  9
$PUCSORG
 10
0.0
 20
0.0
 30
0.0
  9
$PUCSXDIR
 10
1.0
 20
0.0
 30
0.0
  9
$PUCSYDIR
 10
0.0
 20
1.0
 30
0.0
  9
$PUCSORTHOREF
  2

  9
$PUCSORTHOVIEW
 70
     0
  9
$PUCSORGTOP
 10
0.0
 20
0.0
 30
0.0
  9
$PUCSORGBOTTOM
 10
0.0
 20
0.0
 30
0.0
  9
$PUCSORGLEFT
 10
0.0
 20
0.0
 30
0.0
  9
$PUCSORGRIGHT
 10
0.0
 20
0.0
 30
0.0
  9
$PUCSORGFRONT
 10
0.0
 20
0.0
 30
0.0
  9
$PUCSORGBACK
 10
0.0
 20
0.0
 30
0.0
  9
$USERI1
 70
     0
  9
$USERI2
 70
     0
  9
$USERI3
 70
     0
  9
$USERI4
 70
     0
  9
$USERI5
 70
     0
  9
$USERR1
 40
18.1
  9
$USERR2
 40
0.0
  9
$USERR3
 40
0.0
  9
$USERR4
 40
0.0
  9
$USERR5
 40
0.0
  9
$WORLDVIEW
 70
     1
  9
$SHADEDGE
 70
     3
  9
$SHADEDIF
 70
    70
  9
$TILEMODE
 70
     1
  9
$MAXACTVP
 70
    64
  9
$PINSBASE
 10
0.0
 20
0.0
 30
0.0
  9
$PLIMCHECK
 70
     0
  9
$PEXTMIN
 10
1.00000000000000E+20
 20
1.00000000000000E+20
 30
1.00000000000000E+20
  9
$PEXTMAX
 10
-1.00000000000000E+20
 20
-1.00000000000000E+20
 30
-1.00000000000000E+20
  9
$PLIMMIN
 10
0.0
 20
0.0
  9
$PLIMMAX
 10
12.0
 20
9.0
  9
$UNITMODE
 70
     0
  9
$VISRETAIN
 70
     1
  9
$PLINEGEN
 70
     0
  9
$PSLTSCALE
 70
     1
  9
$TREEDEPTH
 70
  3020
  9
$CMLSTYLE
  2
Standard
  9
$CMLJUST
 70
     0
  9
$CMLSCALE
 40
1.0
  9
$PROXYGRAPHICS
 70
     1
  9
$MEASUREMENT
 70
     1
  9
$CELWEIGHT
370
    -1
  9
$ENDCAPS
280
     0
  9
$JOINSTYLE
280
     0
  9
$LWDISPLAY
290
     0
  9
$INSUNITS
 70
     4
  9
$HYPERLINKBASE
  1

  9
$STYLESHEET
  1

  9
$XEDIT
290
     1
  9
$CEPSNTYPE
380
     0
  9
$PSTYLEMODE
290
     1
  9
$FINGERPRINTGUID
  2
{4845FCE5-29E6-4BB9-A535-A49FBBF91884}
  9
$VERSIONGUID
  2
{FAEB1C32-E019-11D5-929B-00C0DF256EC4}
  9
$EXTNAMES
290
     1
  9
$PSVPSCALE
 40
0.0
  9
$OLESTARTUP
290
     0
  0
ENDSEC
  0
SECTION
  2
CLASSES
  0
CLASS
  1
ACDBDICTIONARYWDFLT
  2
AcDbDictionaryWithDefault
  3
ObjectDBX Classes
 90
        0
280
     0
281
     0
  0
CLASS
  1
VISUALSTYLE
  2
AcDbVisualStyle
  3
ObjectDBX Classes
 90
     4095
280
     0
281
     0
  0
CLASS
  1
MATERIAL
  2
AcDbMaterial
  3
ObjectDBX Classes
 90
     1153
280
     0
281
     0
  0
CLASS
  1
DICTIONARYVAR
  2
AcDbDictionaryVar
  3
ObjectDBX Classes
 90
        0
280
     0
281
     0
  0
CLASS
  1
ACDBPLACEHOLDER
  2
AcDbPlaceHolder
  3
ObjectDBX Classes
 90
        0
280
     0
281
     0
  0
CLASS
  1
LAYOUT
  2
AcDbLayout
  3
ObjectDBX Classes
 90
        0
280
     0
281
     0
  0
ENDSEC
  0
SECTION
  2
TABLES
  0
TABLE
  2
VPORT
  5
8
330
0
100
AcDbSymbolTable
 70
     1
  0
VPORT
  5
29
330
8
100
AcDbSymbolTableRecord
100
AcDbViewportTableRecord
  2
*Active
 70
     0
 10
0.0
 20
0.0
 11
1.0
 21
1.0
 12
-52.50000000000005
 22
74.25000000000006
 13
0.0
 23
0.0
 14
0.5
 24
0.5
 15
0.5
 25
0.5
 16
0.0
 26
0.0
 36
1.0
 17
0.0
 27
0.0
 37
0.0
 40
163.3500000000001
 41
1.60267857142857
 42
50.0
 43
0.0
 44
0.0
 50
0.0
 51
0.0
 71
     0
 72
   100
 73
     1
 74
     3
 75
     0
 76
     0
 77
     0
 78
     0
281
     0
 65
     1
110
0.0
120
0.0
130
0.0
111
1.0
121
0.0
131
0.0
112
0.0
122
1.0
132
0.0
 79
     0
146
0.0
  0
ENDTAB
  0
TABLE
  2
LTYPE
  5
5
330
0
100
AcDbSymbolTable
 70
     8
  0
LTYPE
  5
14
330
5
100
AcDbSymbolTableRecord
100
AcDbLinetypeTableRecord
  2
ByBlock
 70
     0
  3

 72
    65
 73
     0
 40
0.0
  0
LTYPE
  5
15
330
5
100
AcDbSymbolTableRecord
100
AcDbLinetypeTableRecord
  2
ByLayer
 70
     0
  3

 72
    65
 73
     0
 40
0.0
  0
LTYPE
  5
16
330
5
100
AcDbSymbolTableRecord
100
AcDbLinetypeTableRecord
  2
Continuous
 70
     0
  3
Solid line
 72
    65
 73
     0
 40
0.0
  0
LTYPE
  5
3F
330
5
100
AcDbSymbolTableRecord
100
AcDbLinetypeTableRecord
  2
DASHED
 70
     0
  3
Dashed
 72
    65
 73
     2
 40
15.0
 49
7.0
 74
     0
 49
-8.0
 74
     0
  0
LTYPE
  5
40
330
5
100
AcDbSymbolTableRecord
100
AcDbLinetypeTableRecord
  2
DOTTED
 70
     0
  3
Dotted
 72
    65
 73
     2
 40
1.0
 49
0.0
 74
     0
 49
-1.0
 74
     0
  0
LTYPE
  5
41
330
5
100
AcDbSymbolTableRecord
100
AcDbLinetypeTableRecord
  2
DOT_CENTER
 70
     0
  3
Dot_Center
 72
    65
 73
     4
 40
14.0
 49
12.0
 74
     0
 49
-1.0
 74
     0
 49
0.0
 74
     0
 49
-1.0
 74
     0
  0
LTYPE
  5
42
330
5
100
AcDbSymbolTableRecord
100
AcDbLinetypeTableRecord
  2
LONG_DASHED
 70
     0
  3
Long_Dashed
 72
    65
 73
     2
 40
15.0
 49
10.0
 74
     0
 49
-5.0
 74
     0
  0
LTYPE
  5
43
330
5
100
AcDbSymbolTableRecord
100
AcDbLinetypeTableRecord
  2
DASH_CENTER
 70
     0
  3
Dash_Center
 72
    65
 73
     4
 40
14.0
 49
11.0
 74
     0
 49
-1.0
 74
     0
 49
1.0
 74
     0
 49
-1.0
 74
     0
  0
LTYPE
  5
44
330
5
100
AcDbSymbolTableRecord
100
AcDbLinetypeTableRecord
  2
PHANTOM
 70
     0
  3
Phantom
 72
    65
 73
     6
 40
13.0
 49
10.0
 74
     0
 49
-1.0
 74
     0
 49
0.0
 74
     0
 49
-1.0
 74
     0
 49
0.0
 74
     0
 49
-1.0
 74
     0
  0
LTYPE
  5
45
330
5
100
AcDbSymbolTableRecord
100
AcDbLinetypeTableRecord
  2
CENTER_DASH_DASH
 70
     0
  3
Center_Dash_Dash
 72
    65
 73
     6
 40
14.0
 49
9.0
 74
     0
 49
-1.0
 74
     0
 49
1.0
 74
     0
 49
-1.0
 74
     0
 49
1.0
 74
     0
 49
-1.0
 74
     0
  0
ENDTAB
  0
TABLE
  2
LAYER
  5
2
330
0
100
AcDbSymbolTable
 70
     2
  0
LAYER
  5
10
330
2
100
AcDbSymbolTableRecord
100
AcDbLayerTableRecord
  2
0
 70
     0
 62
     7
  6
Continuous
370
    -3
390
F
  0
LAYER
  5
46
330
2
100
AcDbSymbolTableRecord
100
AcDbLayerTableRecord
  2
1
 70
     0
 62
     7
  6
Continuous
370
    -3
390
F
  0
ENDTAB
  0
TABLE
  2
STYLE
  5
3
330
0
100
AcDbSymbolTable
 70
     3
  0
STYLE
  5
11
330
3
100
AcDbSymbolTableRecord
100
AcDbTextStyleTableRecord
  2
Standard
 70
     0
 40
0.0
 41
1.0
 50
0.0
 71
     0
 42
0.2
  3
txt
  4

  0
STYLE
  5
32C
330
3
100
AcDbSymbolTableRecord
100
AcDbTextStyleTableRecord
  2
CONVERTER_11
 70
     0
 40
0.0
 41
0.95
 50
0.0
 71
     0
 42
0.2
  3
simplex.shx
  4

  0
STYLE
  5
333
330
3
100
AcDbSymbolTableRecord
100
AcDbTextStyleTableRecord
  2
CONVERTER_12
 70
     0
 40
0.0
 41
1.2
 50
0.0
 71
     0
 42
0.2
  3
ARIAL.TTF
  4

  0
ENDTAB
  0
TABLE
  2
VIEW
  5
6
330
0
100
AcDbSymbolTable
 70
     0
  0
ENDTAB
  0
TABLE
  2
UCS
  5
7
330
0
100
AcDbSymbolTable
 70
     0
  0
ENDTAB
  0
TABLE
  2
APPID
  5
9
330
0
100
AcDbSymbolTable
 70
     1
  0
APPID
  5
12
330
9
100
AcDbSymbolTableRecord
100
AcDbRegAppTableRecord
  2
ACAD
 70
     0
  0
ENDTAB
  0
TABLE
  2
DIMSTYLE
  5
A
330
0
100
AcDbSymbolTable
 70
     4
100
AcDbDimStyleTable
  0
DIMSTYLE
105
27
330
A
100
AcDbSymbolTableRecord
100
AcDbDimStyleTableRecord
  2
Standard
 70
     0
178
     0
340
11
  0
DIMSTYLE
105
345
102
{ACAD_REACTORS
330
346
102
}
330
A
100
AcDbSymbolTableRecord
100
AcDbDimStyleTableRecord
  2
ME10_DIM_10
 70
     0
 41
1.5
 42
0.25
 44
0.5
 73
     0
 74
     0
 77
     1
 78
     8
140
1.5
147
1.0
172
     1
173
     1
174
     1
175
     1
176
     2
177
     2
271
     2
178
     4
271
     2
340
32C
  0
DIMSTYLE
105
350
102
{ACAD_REACTORS
330
351
102
}
330
A
100
AcDbSymbolTableRecord
100
AcDbDimStyleTableRecord
  2
ME10_DIM_11
 70
     0
 41
1.5
 42
0.25
 44
0.5
 73
     0
 74
     0
 77
     1
 78
     8
140
1.5
147
1.0
172
     1
173
     1
174
     1
175
     1
176
     2
177
     2
271
     2
178
     4
271
     2
340
32C
  0
DIMSTYLE
105
35B
102
{ACAD_REACTORS
330
35C
102
}
330
A
100
AcDbSymbolTableRecord
100
AcDbDimStyleTableRecord
  2
ME10_DIM_12
 70
     0
 41
1.5
 42
0.25
 44
0.5
 73
     0
 74
     0
 77
     1
 78
     8
140
1.5
147
1.0
172
     1
173
     1
174
     1
175
     1
176
     2
177
     2
271
     2
178
     4
271
     2
340
32C
  0
ENDTAB
  0
TABLE
  2
BLOCK_RECORD
  5
1
330
0
100
AcDbSymbolTable
 70
     4
  0
BLOCK_RECORD
  5
1F
330
1
100
AcDbSymbolTableRecord
100
AcDbBlockTableRecord
  2
*Model_Space
340
22
  0
BLOCK_RECORD
  5
1B
330
1
100
AcDbSymbolTableRecord
100
AcDbBlockTableRecord
  2
*Paper_Space
340
1E
  0
BLOCK_RECORD
  5
23
330
1
100
AcDbSymbolTableRecord
100
AcDbBlockTableRecord
  2
*Paper_Space0
340
26
  0
BLOCK_RECORD
  5
33C
330
1
100
AcDbSymbolTableRecord
100
AcDbBlockTableRecord
  2
*D1
340
0
  0
BLOCK_RECORD
  5
347
330
1
100
AcDbSymbolTableRecord
100
AcDbBlockTableRecord
  2
*D2
340
0
  0
BLOCK_RECORD
  5
352
330
1
100
AcDbSymbolTableRecord
100
AcDbBlockTableRecord
  2
*D3
340
0
  0
ENDTAB
  0
ENDSEC
  0
SECTION
  2
BLOCKS
  0
BLOCK
  5
20
330
1F
100
AcDbEntity
  8
0
100
AcDbBlockBegin
  2
*Model_Space
 70
     0
 10
0.0
 20
0.0
 30
0.0
  3
*Model_Space
  1

  0
ENDBLK
  5
21
330
1F
100
AcDbEntity
  8
0
100
AcDbBlockEnd
  0
BLOCK
  5
1C
330
1B
100
AcDbEntity
 67
     1
  8
0
100
AcDbBlockBegin
  2
*Paper_Space
 70
     0
 10
0.0
 20
0.0
 30
0.0
  3
*Paper_Space
  1

  0
ENDBLK
  5
1D
330
1B
100
AcDbEntity
 67
     1
  8
0
100
AcDbBlockEnd
  0
BLOCK
  5
24
330
23
100
AcDbEntity
  8
0
100
AcDbBlockBegin
  2
*Paper_Space0
 70
     0
 10
0.0
 20
0.0
 30
0.0
  3
*Paper_Space0
  1

  0
ENDBLK
  5
25
330
23
100
AcDbEntity
  8
0
100
AcDbBlockEnd
  0
BLOCK
  5
343
330
33C
100
AcDbEntity
  8
0
100
AcDbBlockBegin
  2
*D1
 70
     1
 10
0.0
 20
0.0
 30
0.0
  3
*D1
  1

  0
LINE
  5
33D
330
33C
100
AcDbEntity
  8
1
  6
Continuous
 62
     2
100
AcDbLine
 10
-74.5327095258527
 20
100.994807995181
 30
0.0
 11
-53.5327095258527
 21
100.994807995181
 31
0.0
  0
LINE
  5
33E
330
33C
100
AcDbEntity
  8
1
  6
Continuous
 62
     2
100
AcDbLine
 10
-53.5327095258527
 20
82.74294004327264
 30
0.0
 11
-53.5327095258527
 21
101.494807995181
 31
0.0
  0
LINE
  5
33F
330
33C
100
AcDbEntity
  8
1
  6
Continuous
 62
     2
100
AcDbLine
 10
-74.5327095258527
 20
82.74294004327284
 30
0.0
 11
-74.5327095258527
 21
101.494807995181
 31
0.0
  0
SOLID
  5
340
330
33C
100
AcDbEntity
  8
1
 62
     2
100
AcDbTrace
 10
-73.0327095258527
 20
101.1922867415621
 30
0.0
 11
-73.0327095258527
 21
100.7973292487999
 31
0.0
 12
-74.5327095258527
 22
100.994807995181
 32
0.0
 13
-74.5327095258527
 23
100.994807995181
 33
0.0
  0
SOLID
  5
341
330
33C
100
AcDbEntity
  8
1
 62
     2
100
AcDbTrace
 10
-55.0327095258527
 20
100.7973292487999
 30
0.0
 11
-55.0327095258527
 21
101.1922867415621
 31
0.0
 12
-53.5327095258527
 22
100.994807995181
 32
0.0
 13
-53.5327095258527
 23
100.994807995181
 33
0.0
  0
MTEXT
  5
342
330
33C
100
AcDbEntity
  8
1
 62
     4
100
AcDbMText
 10
-64.9327095258527
 20
101.994807995181
 30
0.0
 40
1.5
 41
0.0
 71
     7
 72
     1
  1
21
  7
CONVERTER_11
 11
0.9999999999970619
 21
2.424068405545306E-6
 31
0.0
 73
     1
 44
0.60024009603842
  0
ENDBLK
  5
344
330
33C
100
AcDbEntity
  8
0
100
AcDbBlockEnd
  0
BLOCK
  5
34E
330
347
100
AcDbEntity
  8
0
100
AcDbBlockBegin
  2
*D2
 70
     1
 10
0.0
 20
0.0
 30
0.0
  3
*D2
  1

  0
LINE
  5
348
330
347
100
AcDbEntity
  8
1
  6
Continuous
 62
     2
100
AcDbLine
 10
-36.58270952585259
 20
100.994807995181
 30
0.0
 11
-15.58270952585259
 21
100.994807995181
 31
0.0
  0
LINE
  5
349
330
347
100
AcDbEntity
  8
1
  6
Continuous
 62
     2
100
AcDbLine
 10
-15.58270952585259
 20
82.74294004327255
 30
0.0
 11
-15.58270952585259
 21
101.494807995181
 31
0.0
  0
LINE
  5
34A
330
347
100
AcDbEntity
  8
1
  6
Continuous
 62
     2
100
AcDbLine
 10
-36.58270952585259
 20
82.74294004327307
 30
0.0
 11
-36.58270952585259
 21
101.494807995181
 31
0.0
  0
SOLID
  5
34B
330
347
100
AcDbEntity
  8
1
 62
     2
100
AcDbTrace
 10
-35.08270952585259
 20
101.1922867415621
 30
0.0
 11
-35.08270952585259
 21
100.7973292487999
 31
0.0
 12
-36.58270952585259
 22
100.994807995181
 32
0.0
 13
-36.58270952585259
 23
100.994807995181
 33
0.0
  0
SOLID
  5
34C
330
347
100
AcDbEntity
  8
1
 62
     2
100
AcDbTrace
 10
-17.08270952585259
 20
100.7973292487999
 30
0.0
 11
-17.08270952585259
 21
101.1922867415621
 31
0.0
 12
-15.58270952585259
 22
100.994807995181
 32
0.0
 13
-15.58270952585259
 23
100.994807995181
 33
0.0
  0
MTEXT
  5
34D
330
347
100
AcDbEntity
  8
1
 62
     4
100
AcDbMText
 10
-26.98270952585259
 20
101.994807995181
 30
0.0
 40
1.5
 41
0.0
 71
     7
 72
     1
  1
21
  7
CONVERTER_11
 11
0.9999999999970619
 21
2.424068405545306E-6
 31
0.0
 73
     1
 44
0.60024009603842
  0
ENDBLK
  5
34F
330
347
100
AcDbEntity
  8
0
100
AcDbBlockEnd
  0
BLOCK
  5
359
330
352
100
AcDbEntity
  8
0
100
AcDbBlockBegin
  2
*D3
 70
     1
 10
0.0
 20
0.0
 30
0.0
  3
*D3
  1

  0
LINE
  5
353
330
352
100
AcDbEntity
  8
1
  6
Continuous
 62
     2
100
AcDbLine
 10
-83.3169502566728
 20
93.79294004327267
 30
0.0
 11
-83.3169502566728
 21
62.99294004327369
 31
0.0
  0
LINE
  5
354
330
352
100
AcDbEntity
  8
1
  6
Continuous
 62
     2
100
AcDbLine
 10
-74.7827095258527
 20
62.99294004327369
 30
0.0
 11
-83.8169502566728
 21
62.99294004327369
 31
0.0
  0
LINE
  5
355
330
352
100
AcDbEntity
  8
1
  6
Continuous
 62
     2
100
AcDbLine
 10
-69.78270952585281
 20
93.79294004327267
 30
0.0
 11
-83.8169502566728
 21
93.79294004327267
 31
0.0
  0
SOLID
  5
356
330
352
100
AcDbEntity
  8
1
 62
     2
100
AcDbTrace
 10
-83.1194715102917
 20
92.29294004327267
 30
0.0
 11
-83.51442900305389
 21
92.29294004327267
 31
0.0
 12
-83.3169502566728
 22
93.79294004327267
 32
0.0
 13
-83.3169502566728
 23
93.79294004327267
 33
0.0
  0
SOLID
  5
357
330
352
100
AcDbEntity
  8
1
 62
     2
100
AcDbTrace
 10
-83.51442900305389
 20
64.49294004327369
 30
0.0
 11
-83.1194715102917
 21
64.49294004327369
 31
0.0
 12
-83.3169502566728
 22
62.99294004327369
 32
0.0
 13
-83.3169502566728
 23
62.99294004327369
 33
0.0
  0
MTEXT
  5
358
330
352
100
AcDbEntity
  8
1
 62
     4
100
AcDbMText
 10
-84.4669502566728
 20
76.33044004327317
 30
0.0
 40
1.5
 41
0.0
 71
     7
 72
     1
  1
30,8
  7
CONVERTER_11
 11
0.0
 21
1.0
 31
0.0
 73
     1
 44
0.60024009603842
  0
ENDBLK
  5
35A
330
352
100
AcDbEntity
  8
0
100
AcDbBlockEnd
  0
ENDSEC
  0
SECTION
  2
ENTITIES
  0
LINE
  5
47
330
1F
100
AcDbEntity
  8
1
  6
Continuous
 62
     7
100
AcDbLine
 10
-61.83270952585311
 20
137.1729400432739
 30
0.0
 11
-59.2327095258528
 21
137.1729400432739
 31
0.0
  0
LINE
  5
48
102
{ACAD_REACTORS
330
35F
102
}
330
1F
100
AcDbEntity
  8
1
  6
Continuous
 62
     2
100
AcDbLine
 10
-63.2327095258528
 20
125.7154207644544
 30
0.0
 11
-63.2327095258528
 21
127.1925552855446
 31
0.0
  0
LINE
  5
49
102
{ACAD_REACTORS
330
35F
102
}
330
1F
100
AcDbEntity
  8
1
  6
Continuous
 62
     2
100
AcDbLine
 10
-63.2327095258528
 20
127.1925552855446
 30
0.0
 11
-63.48940825566361
 21
126.7479400432738
 31
0.0
  0
LINE
  5
4A
102
{ACAD_REACTORS
330
35F
102
}
330
1F
100
AcDbEntity
  8
1
  6
Continuous
 62
     2
100
AcDbLine
 10
-63.57601079604201
 20
126.7479400432738
 30
0.0
 11
-63.83270952585282
 21
127.1925552855446
 31
0.0
  0
LINE
  5
4B
102
{ACAD_REACTORS
330
35F
102
}
330
1F
100
AcDbEntity
  8
1
  6
Continuous
 62
     2
100
AcDbLine
 10
-63.83270952585282
 20
127.1925552855446
 30
0.0
 11
-63.83270952585271
 21
126.1772155650637
 31
0.0
  0
LINE
  5
4C
330
1F
100
AcDbEntity
  8
1
  6
Continuous
 62
     2
100
AcDbLine
 10
-66.0576401083952
 20
126.7162493225763
 30
0.0
 11
-63.53270952585281
 21
128.1729400432738
 31
0.0
  0
LINE
  5
4D
330
1F
100
AcDbEntity
  8
1
  6
Continuous
 62
     2
100
AcDbLine
 10
-63.53270952585281
 20
128.1729400432738
 30
0.0
 11
-61.00777894331021
 21
126.7162493225763
 31
0.0
  0
LINE
  5
4E
330
1F
100
AcDbEntity
  8
1
  6
Continuous
 62
     2
100
AcDbLine
 10
-61.00777894331021
 20
126.6296307639715
 30
0.0
 11
-63.53270952585281
 21
125.1729400432738
 31
0.0
  0
LINE
  5
4F
330
1F
100
AcDbEntity
  8
1
  6
Continuous
 62
     2
100
AcDbLine
 10
-63.53270952585281
 20
125.1729400432738
 30
0.0
 11
-66.0576401083952
 21
126.6296307639715
 31
0.0
  0
LINE
  5
50
102
{ACAD_REACTORS
330
35F
102
}
330
1F
100
AcDbEntity
  8
1
  6
Continuous
 62
     2
100
AcDbLine
 10
-64.03270952585281
 20
126.1772155650637
 30
0.0
 11
-64.03270952585281
 21
127.6423052368843
 31
0.0
  0
LINE
  5
51
102
{ACAD_REACTORS
330
35F
102
}
330
1F
100
AcDbEntity
  8
1
  6
Continuous
 62
     2
100
AcDbLine
 10
-63.88437942076571
 20
127.6820501687555
 30
0.0
 11
-63.53270952585281
 21
127.0729400432738
 31
0.0
  0
LINE
  5
52
102
{ACAD_REACTORS
330
35F
102
}
330
1F
100
AcDbEntity
  8
1
  6
Continuous
 62
     2
100
AcDbLine
 10
-63.03270952585281
 20
125.7154207644544
 30
0.0
 11
-63.03270952585281
 21
127.6423052368843
 31
0.0
  0
LINE
  5
53
102
{ACAD_REACTORS
330
35F
102
}
330
1F
100
AcDbEntity
  8
1
  6
Continuous
 62
     2
100
AcDbLine
 10
-63.18103963093982
 20
127.6820501687555
 30
0.0
 11
-63.53270952585281
 21
127.0729400432738
 31
0.0
  0
LINE
  5
54
102
{ACAD_REACTORS
330
35E
102
}
330
1F
100
AcDbEntity
  8
1
  6
Continuous
 62
     2
100
AcDbLine
 10
-64.43270952585281
 20
126.0039463876836
 30
0.0
 11
-64.43270952585281
 21
127.3996900913241
 31
0.0
  0
LINE
  5
55
102
{ACAD_REACTORS
330
35E
102
}
330
1F
100
AcDbEntity
  8
1
  6
Continuous
 62
     2
100
AcDbLine
 10
-64.2327095258528
 20
127.3996900913241
 30
0.0
 11
-64.2327095258528
 21
126.0039463876836
 31
0.0
  0
LINE
  5
56
102
{ACAD_REACTORS
330
35E
102
}
330
1F
100
AcDbEntity
  8
1
  6
Continuous
 62
     2
100
AcDbLine
 10
-64.2327095258528
 20
126.0039463876836
 30
0.0
 11
-63.58273728050371
 21
125.6289623999824
 31
0.0
  0
LINE
  5
57
102
{ACAD_REACTORS
330
35E
102
}
330
1F
100
AcDbEntity
  8
1
  6
Continuous
 62
     7
100
AcDbLine
 10
-63.68268177120181
 20
125.4557252827726
 30
0.0
 11
-64.33265401655062
 21
125.8307092704739
 31
0.0
  0
LINE
  5
58
102
{ACAD_REACTORS
330
35D
102
}
330
1F
100
AcDbEntity
  8
1
  6
Continuous
 62
     2
100
AcDbLine
 10
-64.63270952585272
 20
127.1689208605549
 30
0.0
 11
-64.63270952585272
 21
126.1769592259928
 31
0.0
  0
LINE
  5
59
102
{ACAD_REACTORS
330
35D
102
}
330
1F
100
AcDbEntity
  8
1
  6
Continuous
 62
     2
100
AcDbLine
 10
-64.8327095258527
 20
126.1769592259928
 30
0.0
 11
-64.8327095258527
 21
127.1689208605549
 31
0.0
  0
LINE
  5
5A
102
{ACAD_REACTORS
330
360
102
}
330
1F
100
AcDbEntity
  8
1
  6
Continuous
 62
     2
100
AcDbLine
 10
-62.6827372805039
 20
127.4863086499289
 30
0.0
 11
-62.28273728050381
 21
127.2555394191597
 31
0.0
  0
LINE
  5
5B
102
{ACAD_REACTORS
330
360
102
}
330
1F
100
AcDbEntity
  8
1
  6
Continuous
 62
     2
100
AcDbLine
 10
-62.3826817712016
 20
127.08230230195
 30
0.0
 11
-62.63270952585272
 21
127.2265490834795
 31
0.0
  0
LINE
  5
5C
102
{ACAD_REACTORS
330
360
102
}
330
1F
100
AcDbEntity
  8
1
  6
Continuous
 62
     2
100
AcDbLine
 10
-62.63270952585272
 20
127.2265490834795
 30
0.0
 11
-62.63270952585272
 21
126.7729400432739
 31
0.0
  0
LINE
  5
5D
102
{ACAD_REACTORS
330
360
102
}
330
1F
100
AcDbEntity
  8
1
  6
Continuous
 62
     2
100
AcDbLine
 10
-62.63270952585272
 20
126.7729400432739
 30
0.0
 11
-62.33270952585271
 21
126.7729400432739
 31
0.0
  0
LINE
  5
5E
102
{ACAD_REACTORS
330
360
102
}
330
1F
100
AcDbEntity
  8
1
  6
Continuous
 62
     2
100
AcDbLine
 10
-62.33270952585271
 20
126.5729400432738
 30
0.0
 11
-62.63270952585272
 21
126.5729400432738
 31
0.0
  0
LINE
  5
5F
102
{ACAD_REACTORS
330
360
102
}
330
1F
100
AcDbEntity
  8
1
  6
Continuous
 62
     2
100
AcDbLine
 10
-62.63270952585272
 20
126.5729400432738
 30
0.0
 11
-62.63270952585272
 21
126.1193310030683
 31
0.0
  0
LINE
  5
60
102
{ACAD_REACTORS
330
360
102
}
330
1F
100
AcDbEntity
  8
1
  6
Continuous
 62
     2
100
AcDbLine
 10
-62.63270952585272
 20
126.1193310030683
 30
0.0
 11
-62.3826817712016
 21
126.2635777845978
 31
0.0
  0
LINE
  5
61
102
{ACAD_REACTORS
330
360
102
}
330
1F
100
AcDbEntity
  8
1
  6
Continuous
 62
     2
100
AcDbLine
 10
-62.28273728050381
 20
126.090340667388
 30
0.0
 11
-62.6827372805039
 21
125.8595714366188
 31
0.0
  0
LINE
  5
62
102
{ACAD_REACTORS
330
360
102
}
330
1F
100
AcDbEntity
  8
1
  6
Continuous
 62
     2
100
AcDbLine
 10
-62.83270952585271
 20
125.9461899952236
 30
0.0
 11
-62.83270952585271
 21
127.3996900913241
 31
0.0
  0
LINE
  5
63
330
1F
100
AcDbEntity
  8
0
  6
Continuous
 62
     7
100
AcDbLine
 10
-59.15133867595422
 20
119.5288274935784
 30
0.0
 11
-56.95930765427592
 21
117.3367964719002
 31
0.0
  0
LINE
  5
64
330
1F
100
AcDbEntity
  8
0
  6
Continuous
 62
     7
100
AcDbLine
 10
-57.03001833239462
 20
121.7915691933753
 30
0.0
 11
-59.15133867595422
 21
119.6702488498157
 31
0.0
  0
LINE
  5
65
330
1F
100
AcDbEntity
  8
0
  6
Continuous
 62
     7
100
AcDbLine
 10
-56.53504358556411
 20
121.2965944465449
 30
0.0
 11
-58.65636392912371
 21
119.1752741029852
 31
0.0
  0
LINE
  5
66
330
1F
100
AcDbEntity
  8
0
  6
Continuous
 62
     7
100
AcDbLine
 10
-58.72707460724242
 20
119.1045634248665
 30
0.0
 11
-58.65636392912371
 21
119.1752741029852
 31
0.0
  0
LINE
  5
67
330
1F
100
AcDbEntity
  8
0
  6
Continuous
 62
     7
100
AcDbLine
 10
-56.8178862980386
 20
117.3367964719002
 30
0.0
 11
-54.696565954479
 21
119.4581168154598
 31
0.0
  0
LINE
  5
68
330
1F
100
AcDbEntity
  8
0
  6
Continuous
 62
     7
100
AcDbLine
 10
-54.69656595447911
 20
119.5995381716971
 30
0.0
 11
-56.88859697615722
 21
121.7915691933753
 31
0.0
  0
LINE
  5
69
330
1F
100
AcDbEntity
  8
0
  6
Continuous
 62
     7
100
AcDbLine
 10
-56.53504358556411
 20
121.2965944465449
 30
0.0
 11
-56.4643329074455
 21
121.3673051246635
 31
0.0
  0
LINE
  5
6A
330
1F
100
AcDbEntity
  8
0
  6
Continuous
 62
     7
100
AcDbLine
 10
-68.9140803757514
 20
119.6702488498156
 30
0.0
 11
-71.03540071931091
 21
121.7915691933754
 31
0.0
  0
LINE
  5
6B
330
1F
100
AcDbEntity
  8
0
  6
Continuous
 62
     7
100
AcDbLine
 10
-73.36885309722642
 20
119.5995381716971
 30
0.0
 11
-71.17682207554812
 21
121.7915691933754
 31
0.0
  0
LINE
  5
6C
330
1F
100
AcDbEntity
  8
0
  6
Continuous
 62
     7
100
AcDbLine
 10
-71.5303754661415
 20
121.2965944465448
 30
0.0
 11
-69.4090551225819
 21
119.1752741029851
 31
0.0
  0
LINE
  5
6D
330
1F
100
AcDbEntity
  8
0
  6
Continuous
 62
     7
100
AcDbLine
 10
-71.10611139742942
 20
117.3367964719002
 30
0.0
 11
-68.9140803757514
 21
119.5288274935784
 31
0.0
  0
LINE
  5
6E
330
1F
100
AcDbEntity
  8
0
  6
Continuous
 62
     7
100
AcDbLine
 10
-69.4090551225819
 20
119.1752741029851
 30
0.0
 11
-69.33834444446332
 21
119.1045634248664
 31
0.0
  0
LINE
  5
6F
330
1F
100
AcDbEntity
  8
0
  6
Continuous
 62
     7
100
AcDbLine
 10
-71.6010861442601
 20
121.3673051246635
 30
0.0
 11
-71.5303754661415
 21
121.2965944465448
 31
0.0
  0
LINE
  5
70
330
1F
100
AcDbEntity
  8
0
  6
Continuous
 62
     7
100
AcDbLine
 10
-73.36885309722642
 20
119.4581168154598
 30
0.0
 11
-71.24753275366682
 21
117.3367964719002
 31
0.0
  0
LINE
  5
71
330
1F
100
AcDbEntity
  8
0
  6
Continuous
 62
     7
100
AcDbLine
 10
-67.64128816961572
 20
125.0442603868329
 30
0.0
 11
-65.66138918229312
 21
123.0643613995112
 31
0.0
  0
LINE
  5
72
330
1F
100
AcDbEntity
  8
0
  6
Continuous
 62
     7
100
AcDbLine
 10
-65.66138918229312
 20
123.0643613995112
 30
0.0
 11
-67.28773477902202
 21
121.4380158027821
 31
0.0
  0
LINE
  5
73
330
1F
100
AcDbEntity
  8
0
  6
Continuous
 62
     7
100
AcDbLine
 10
-67.28773477902202
 20
121.4380158027821
 30
0.0
 11
-69.26763376634442
 21
123.4179147901045
 31
0.0
  0
LINE
  5
74
330
1F
100
AcDbEntity
  8
0
  6
Continuous
 62
     7
100
AcDbLine
 10
-69.26763376634442
 20
123.4179147901045
 30
0.0
 11
-67.64128816961572
 21
125.0442603868329
 31
0.0
  0
LINE
  5
75
330
1F
100
AcDbEntity
  8
0
  6
Continuous
 62
     7
100
AcDbLine
 10
-58.79778528535421
 20
123.4179147901112
 30
0.0
 11
-60.42413088209001
 21
125.0442603868335
 31
0.0
  0
LINE
  5
76
330
1F
100
AcDbEntity
  8
0
  6
Continuous
 62
     7
100
AcDbLine
 10
-60.42413088209001
 20
125.0442603868335
 30
0.0
 11
-62.4040298694121
 21
123.0643613995112
 31
0.0
  0
LINE
  5
77
330
1F
100
AcDbEntity
  8
0
  6
Continuous
 62
     7
100
AcDbLine
 10
-60.77768427268332
 20
121.4380158027821
 30
0.0
 11
-62.4040298694121
 21
123.0643613995112
 31
0.0
  0
LINE
  5
78
330
1F
100
AcDbEntity
  8
0
  6
Continuous
 62
     7
100
AcDbLine
 10
-60.77768427268332
 20
121.4380158027821
 30
0.0
 11
-58.79778528535421
 21
123.4179147901112
 31
0.0
  0
LINE
  5
79
330
1F
100
AcDbEntity
  8
0
  6
Continuous
 62
     7
100
AcDbLine
 10
-59.2704806962435
 20
133.3544692645553
 30
0.0
 11
-57.15628578004971
 21
135.6216657395747
 31
0.0
  0
LINE
  5
7A
330
1F
100
AcDbEntity
  8
0
  6
Continuous
 62
     7
100
AcDbLine
 10
-56.9301488510621
 20
131.1720745123553
 30
0.0
 11
-54.8159539348684
 21
133.4392709873747
 31
0.0
  0
LINE
  5
7B
330
1F
100
AcDbEntity
  8
0
  6
Continuous
 62
     7
100
AcDbLine
 10
-54.82088946902401
 20
133.5806061935429
 30
0.0
 11
-57.01495057388151
 21
135.6266012737304
 31
0.0
  0
LINE
  5
7C
330
1F
100
AcDbEntity
  8
0
  6
Continuous
 62
     7
100
AcDbLine
 10
-56.59408520518652
 20
131.6790865693331
 30
0.0
 11
-58.78814631004401
 21
133.7250816495205
 31
0.0
  0
LINE
  5
7D
330
1F
100
AcDbEntity
  8
0
  6
Continuous
 62
     7
100
AcDbLine
 10
-59.2655451620878
 20
133.2131340583871
 30
0.0
 11
-57.07148405723031
 21
131.1671389781996
 31
0.0
  0
LINE
  5
7E
330
1F
100
AcDbEntity
  8
0
  6
Continuous
 62
     7
100
AcDbLine
 10
-58.78814631004401
 20
133.7250816495205
 30
0.0
 11
-58.86128168020601
 21
133.7932814855268
 31
0.0
  0
LINE
  5
7F
330
1F
100
AcDbEntity
  8
0
  6
Continuous
 62
     7
100
AcDbLine
 10
-56.52094983502461
 20
131.6108867333268
 30
0.0
 11
-56.59408520518652
 21
131.6790865693331
 31
0.0
  0
LINE
  5
80
330
1F
100
AcDbEntity
  8
0
  6
Continuous
 62
     7
100
AcDbLine
 10
-70.9489268511871
 20
131.389929106682
 30
0.0
 11
-69.0753611533823
 21
133.4707346180187
 31
0.0
  0
LINE
  5
81
330
1F
100
AcDbEntity
  8
0
  6
Continuous
 62
     7
100
AcDbLine
 10
-70.9489268511871
 20
131.389929106682
 30
0.0
 11
-72.65815994978512
 21
132.9289295013074
 31
0.0
  0
LINE
  5
82
330
1F
100
AcDbEntity
  8
0
  6
Continuous
 62
     7
100
AcDbLine
 10
-72.65815994978512
 20
132.9289295013074
 30
0.0
 11
-70.7845942519803
 21
135.0097350126441
 31
0.0
  0
LINE
  5
83
330
1F
100
AcDbEntity
  8
0
  6
Continuous
 62
     7
100
AcDbLine
 10
-70.7845942519803
 20
135.0097350126441
 30
0.0
 11
-69.0753611533823
 21
133.4707346180187
 31
0.0
  0
LINE
  5
84
330
1F
100
AcDbEntity
  8
0
  6
Continuous
 62
     7
100
AcDbLine
 10
-67.08367296841722
 20
131.9465370672172
 30
0.0
 11
-64.7799240094373
 21
129.8722321875048
 31
0.0
  0
LINE
  5
85
330
1F
100
AcDbEntity
  8
0
  6
Continuous
 62
     7
100
AcDbLine
 10
-66.70469913376671
 20
131.4707442208541
 30
0.0
 11
-66.63778607313081
 21
131.5450587034019
 31
0.0
  0
LINE
  5
86
330
1F
100
AcDbEntity
  8
0
  6
Continuous
 62
     7
100
AcDbLine
 10
-67.22490051160081
 20
131.9391356453054
 30
0.0
 11
-69.2322923306774
 21
129.7097011688732
 31
0.0
  0
LINE
  5
87
330
1F
100
AcDbEntity
  8
0
  6
Continuous
 62
     7
100
AcDbLine
 10
-69.2248909087656
 20
129.5684736256896
 30
0.0
 11
-66.92114194978562
 21
127.4941687459771
 31
0.0
  0
LINE
  5
88
330
1F
100
AcDbEntity
  8
0
  6
Continuous
 62
     7
100
AcDbLine
 10
-66.77991440660192
 20
127.501570167889
 30
0.0
 11
-64.7725225875255
 21
129.7310046443211
 31
0.0
  0
LINE
  5
89
330
1F
100
AcDbEntity
  8
0
  6
Continuous
 62
     7
100
AcDbLine
 10
-68.7790040134792
 20
129.1669952618742
 30
0.0
 11
-68.7120909528433
 21
129.241309744422
 31
0.0
  0
LINE
  5
8A
330
1F
100
AcDbEntity
  8
0
  6
Continuous
 62
     7
100
AcDbLine
 10
-68.7120909528433
 20
129.241309744422
 30
0.0
 11
-66.70469913376671
 21
131.4707442208541
 31
0.0
  0
LINE
  5
8B
330
1F
100
AcDbEntity
  8
0
  6
Continuous
 62
     7
100
AcDbLine
 10
-60.35001171969812
 20
127.7979764166082
 30
0.0
 11
-58.78141549154221
 21
129.4800899303199
 31
0.0
  0
LINE
  5
8C
330
1F
100
AcDbEntity
  8
0
  6
Continuous
 62
     7
100
AcDbLine
 10
-60.35001171969812
 20
127.7979764166082
 30
0.0
 11
-62.39780208421961
 21
129.7075718247708
 31
0.0
  0
LINE
  5
8D
330
1F
100
AcDbEntity
  8
0
  6
Continuous
 62
     7
100
AcDbLine
 10
-60.8292058560758
 20
131.3896853384949
 30
0.0
 11
-62.39780208421961
 21
129.7075718247708
 31
0.0
  0
LINE
  5
8E
330
1F
100
AcDbEntity
  8
0
  6
Continuous
 62
     7
100
AcDbLine
 10
-60.8292058560758
 20
131.3896853384949
 30
0.0
 11
-58.78141549154221
 21
129.4800899303199
 31
0.0
  0
LINE
  5
8F
330
1F
100
AcDbEntity
  8
1
  6
Continuous
 62
     7
100
AcDbLine
 10
-74.53270952585281
 20
134.1729400432739
 30
0.0
 11
-74.5327095258527
 21
119.1729400432739
 31
0.0
  0
LINE
  5
90
330
1F
100
AcDbEntity
  8
1
  6
Continuous
 62
     7
100
AcDbLine
 10
-53.53270952585281
 20
134.1729400432739
 30
0.0
 11
-53.5327095258527
 21
119.1729400432739
 31
0.0
  0
LINE
  5
91
330
1F
100
AcDbEntity
  8
0
  6
Continuous
 62
     7
100
AcDbLine
 10
-55.03270952585281
 20
125.0729400432739
 30
0.0
 11
-55.03270952585281
 21
128.2729400432739
 31
0.0
  0
LINE
  5
92
330
1F
100
AcDbEntity
  8
0
  6
Continuous
 62
     7
100
AcDbLine
 10
-53.5327095258527
 20
125.0729400432739
 30
0.0
 11
-55.03270952585281
 21
125.0729400432739
 31
0.0
  0
LINE
  5
93
330
1F
100
AcDbEntity
  8
0
  6
Continuous
 62
     7
100
AcDbLine
 10
-54.5327095258527
 20
128.2729400432739
 30
0.0
 11
-54.53270952585281
 21
125.0729400432739
 31
0.0
  0
LINE
  5
94
330
1F
100
AcDbEntity
  8
0
  6
Continuous
 62
     7
100
AcDbLine
 10
-55.03270952585281
 20
128.2729400432739
 30
0.0
 11
-53.5327095258527
 21
128.2729400432739
 31
0.0
  0
LINE
  5
95
330
1F
100
AcDbEntity
  8
0
  6
Continuous
 62
     7
100
AcDbLine
 10
-73.0327095258527
 20
125.0729400432739
 30
0.0
 11
-74.5327095258527
 21
125.0729400432739
 31
0.0
  0
LINE
  5
96
330
1F
100
AcDbEntity
  8
0
  6
Continuous
 62
     7
100
AcDbLine
 10
-74.5327095258527
 20
128.2729400432739
 30
0.0
 11
-73.0327095258527
 21
128.2729400432739
 31
0.0
  0
LINE
  5
97
330
1F
100
AcDbEntity
  8
0
  6
Continuous
 62
     7
100
AcDbLine
 10
-61.0327095258527
 20
135.3729400432739
 30
0.0
 11
-59.2327095258528
 21
137.1729400432739
 31
0.0
  0
LINE
  5
98
330
1F
100
AcDbEntity
  8
0
  6
Continuous
 62
     7
100
AcDbLine
 10
-59.2327095258528
 20
137.1729400432739
 30
0.0
 11
-56.5327095258527
 21
137.1729400432739
 31
0.0
  0
LINE
  5
99
330
1F
100
AcDbEntity
  8
0
  6
Continuous
 62
     7
100
AcDbLine
 10
-71.5327095258527
 20
137.1729400432739
 30
0.0
 11
-68.8327095258527
 21
137.1729400432739
 31
0.0
  0
LINE
  5
9A
330
1F
100
AcDbEntity
  8
0
  6
Continuous
 62
     7
100
AcDbLine
 10
-67.0327095258527
 20
135.3729400432739
 30
0.0
 11
-61.0327095258527
 21
135.3729400432739
 31
0.0
  0
LINE
  5
9B
330
1F
100
AcDbEntity
  8
0
  6
Continuous
 62
     7
100
AcDbLine
 10
-68.8327095258527
 20
137.1729400432739
 30
0.0
 11
-67.0327095258527
 21
135.3729400432739
 31
0.0
  0
LINE
  5
9C
330
1F
100
AcDbEntity
  8
0
  6
Continuous
 62
     7
100
AcDbLine
 10
-73.0327095258527
 20
128.2729400432739
 30
0.0
 11
-73.0327095258527
 21
125.0729400432739
 31
0.0
  0
LINE
  5
9D
330
1F
100
AcDbEntity
  8
0
  6
Continuous
 62
     7
100
AcDbLine
 10
-73.5327095258527
 20
128.2729400432739
 30
0.0
 11
-73.5327095258527
 21
125.0729400432739
 31
0.0
  0
LINE
  5
9E
330
1F
100
AcDbEntity
  8
0
  6
Continuous
 62
     7
100
AcDbLine
 10
-56.5327095258527
 20
116.1729400432739
 30
0.0
 11
-71.5327095258527
 21
116.1729400432739
 31
0.0
  0
LINE
  5
9F
330
1F
100
AcDbEntity
  8
1
  6
Continuous
 62
     7
100
AcDbLine
 10
-68.8327095258527
 20
137.1729400432739
 30
0.0
 11
-66.23270952585251
 21
137.1729400432739
 31
0.0
  0
LINE
  5
A0
102
{ACAD_REACTORS
330
361
102
}
330
1F
100
AcDbEntity
  8
1
  6
Continuous
 62
     7
100
AcDbLine
 10
-58.903851302539
 20
121.5440818199602
 30
0.0
 11
-58.86849596347962
 21
120.3773556310023
 31
0.0
  0
LINE
  5
A1
102
{ACAD_REACTORS
330
361
102
}
330
1F
100
AcDbEntity
  8
1
  6
Continuous
 62
     7
100
AcDbLine
 10
-58.86849596347962
 20
120.3773556310023
 30
0.0
 11
-57.73712511358112
 21
121.5087264809008
 31
0.0
  0
LINE
  5
A2
102
{ACAD_REACTORS
330
361
102
}
330
1F
100
AcDbEntity
  8
1
  6
Continuous
 62
     7
100
AcDbLine
 10
-57.73712511358112
 20
121.5087264809008
 30
0.0
 11
-58.903851302539
 21
121.5440818199602
 31
0.0
  0
LINE
  5
A3
330
1F
100
AcDbEntity
  8
1
  6
Continuous
 62
     7
100
AcDbLine
 10
-70.71001905376481
 20
129.1784725940459
 30
0.0
 11
-70.3070461814312
 21
129.1784725940459
 31
0.0
  0
LINE
  5
A4
330
1F
100
AcDbEntity
  8
1
  6
Continuous
 62
     7
100
AcDbLine
 10
-70.9496245454226
 20
129.4779794586182
 30
0.0
 11
-70.06744068977342
 21
129.4779794586182
 31
0.0
  0
LINE
  5
A5
330
1F
100
AcDbEntity
  8
1
  6
Continuous
 62
     7
100
AcDbLine
 10
-70.5068043385859
 20
129.7774863231904
 30
0.0
 11
-70.5068043385859
 21
130.4156136184918
 31
0.0
  0
LINE
  5
A6
330
1F
100
AcDbEntity
  8
1
  6
Continuous
 62
     7
100
AcDbLine
 10
-71.1892300370804
 20
129.7774863231904
 30
0.0
 11
-69.82783519811561
 21
129.7774863231904
 31
0.0
  0
LINE
  5
A7
102
{ACAD_REACTORS
330
362
102
}
330
1F
100
AcDbEntity
  8
1
  6
Continuous
 62
     7
100
AcDbLine
 10
-69.1615677491666
 20
121.5440818199602
 30
0.0
 11
-70.32829393812442
 21
121.5087264809008
 31
0.0
  0
LINE
  5
A8
102
{ACAD_REACTORS
330
362
102
}
330
1F
100
AcDbEntity
  8
1
  6
Continuous
 62
     7
100
AcDbLine
 10
-70.32829393812442
 20
121.5087264809008
 30
0.0
 11
-69.19692308822592
 21
120.3773556310023
 31
0.0
  0
LINE
  5
A9
102
{ACAD_REACTORS
330
362
102
}
330
1F
100
AcDbEntity
  8
1
  6
Continuous
 62
     7
100
AcDbLine
 10
-69.19692308822592
 20
120.3773556310023
 30
0.0
 11
-69.1615677491666
 21
121.5440818199602
 31
0.0
  0
LINE
  5
AA
102
{ACAD_REACTORS
330
363
102
}
330
1F
100
AcDbEntity
  8
1
  6
Continuous
 62
     7
100
AcDbLine
 10
-58.95819707897321
 20
132.5163290958577
 30
0.0
 11
-58.95281272373101
 21
131.3490797614314
 31
0.0
  0
LINE
  5
AB
102
{ACAD_REACTORS
330
363
102
}
330
1F
100
AcDbEntity
  8
1
  6
Continuous
 62
     7
100
AcDbLine
 10
-57.7880311563825
 20
131.4251317197577
 30
0.0
 11
-58.95819707897321
 21
132.5163290958577
 31
0.0
  0
LINE
  5
AC
102
{ACAD_REACTORS
330
363
102
}
330
1F
100
AcDbEntity
  8
1
  6
Continuous
 62
     7
100
AcDbLine
 10
-58.95281272373101
 20
131.3490797614314
 30
0.0
 11
-57.7880311563825
 21
131.4251317197577
 31
0.0
  0
LINE
  5
AD
102
{ACAD_REACTORS
330
364
102
}
330
1F
100
AcDbEntity
  8
1
  6
Continuous
 62
     7
100
AcDbLine
 10
-69.08321297043811
 20
131.5939186044016
 30
0.0
 11
-68.9868443538693
 21
130.4306417286146
 31
0.0
  0
LINE
  5
AE
102
{ACAD_REACTORS
330
364
102
}
330
1F
100
AcDbEntity
  8
1
  6
Continuous
 62
     7
100
AcDbLine
 10
-68.9868443538693
 20
130.4306417286146
 30
0.0
 11
-67.91623538369511
 21
131.6196734493784
 31
0.0
  0
LINE
  5
AF
102
{ACAD_REACTORS
330
364
102
}
330
1F
100
AcDbEntity
  8
1
  6
Continuous
 62
     7
100
AcDbLine
 10
-67.91623538369511
 20
131.6196734493784
 30
0.0
 11
-69.08321297043811
 21
131.5939186044016
 31
0.0
  0
LINE
  5
B0
330
1F
100
AcDbEntity
  8
1
  6
Continuous
 62
     7
100
AcDbLine
 10
-74.53270952585281
 20
131.6563895157014
 30
0.0
 11
-68.92823350543291
 21
126.6100966407453
 31
0.0
  0
LINE
  5
B1
330
1F
100
AcDbEntity
  8
1
  6
Continuous
 62
     7
100
AcDbLine
 10
-66.8098203576785
 20
126.7211179694232
 30
0.0
 11
-64.3340371141508
 21
129.4707538236895
 31
0.0
  0
LINE
  5
B2
330
1F
100
AcDbEntity
  8
1
  6
Continuous
 62
     7
100
AcDbLine
 10
-64.44505844282871
 20
131.5891669714439
 30
0.0
 11
-70.64646669636942
 21
137.1729400432739
 31
0.0
  0
LINE
  5
B3
330
1F
100
AcDbEntity
  8
1
  6
Continuous
 62
     4
100
AcDbLine
 10
-65.75458992538391
 20
37.07359012584488
 30
0.0
 11
-66.11082912632112
 21
37.07359012584488
 31
0.0
  0
LINE
  5
B4
330
1F
100
AcDbEntity
  8
1
  6
Continuous
 62
     4
100
AcDbLine
 10
-65.56777202212332
 20
36.8163177467697
 30
0.0
 11
-66.297647029582
 21
36.8163177467697
 31
0.0
  0
LINE
  5
B5
330
1F
100
AcDbEntity
  8
1
  6
Continuous
 62
     4
100
AcDbLine
 10
-65.38095411886242
 20
36.55904536769399
 30
0.0
 11
-66.48446493284301
 21
36.55904536769399
 31
0.0
  0
LINE
  5
B6
330
1F
100
AcDbEntity
  8
1
  6
Continuous
 62
     4
100
AcDbLine
 10
-65.93270952585281
 20
36.02228996070369
 30
0.0
 11
-65.93270952585281
 21
36.55904536769399
 31
0.0
  0
LINE
  5
B7
330
1F
100
AcDbEntity
  8
1
  6
Continuous
 62
     7
100
AcDbLine
 10
-27.5827095258526
 20
77.79294004327284
 30
0.0
 11
-24.5827095258526
 21
77.79294004327278
 31
0.0
  0
LINE
  5
B8
330
1F
100
AcDbEntity
  8
0
  6
Continuous
 62
     7
100
AcDbLine
 10
-31.58270952585228
 20
93.79294004327292
 30
0.0
 11
-31.58270952585228
 21
92.79294004327292
 31
0.0
  0
LINE
  5
B9
330
1F
100
AcDbEntity
  8
0
  6
Continuous
 62
     7
100
AcDbLine
 10
-31.5827095258526
 20
82.49294004327294
 30
0.0
 11
-31.58270952585228
 21
92.79294004327292
 31
0.0
  0
LINE
  5
BA
330
1F
100
AcDbEntity
  8
0
  6
Continuous
 62
     7
100
AcDbLine
 10
-33.58270952585259
 20
82.49294004327297
 30
0.0
 11
-27.58270952585248
 21
82.49294004327282
 31
0.0
  0
LINE
  5
BB
330
1F
100
AcDbEntity
  8
0
  6
Continuous
 62
     7
100
AcDbLine
 10
-20.58270952585228
 20
92.79294004327267
 30
0.0
 11
-20.5827095258526
 21
82.49294004327265
 31
0.0
  0
LINE
  5
BC
330
1F
100
AcDbEntity
  8
0
  6
Continuous
 62
     7
100
AcDbLine
 10
-24.58270952585248
 20
82.49294004327277
 30
0.0
 11
-18.5827095258526
 21
82.49294004327263
 31
0.0
  0
LINE
  5
BD
330
1F
100
AcDbEntity
  8
0
  6
Continuous
 62
     7
100
AcDbLine
 10
-20.58270952585228
 20
92.79294004327267
 30
0.0
 11
-20.58270952585228
 21
93.79294004327267
 31
0.0
  0
LINE
  5
BE
330
1F
100
AcDbEntity
  8
0
  6
Continuous
 62
     7
100
AcDbLine
 10
-63.1327095258526
 20
34.33475764752411
 30
0.0
 11
-63.1327095258526
 21
36.57294004327418
 31
0.0
  0
LINE
  5
BF
330
1F
100
AcDbEntity
  8
0
  6
Continuous
 62
     7
100
AcDbLine
 10
-64.93270952585262
 20
36.57294004327418
 30
0.0
 11
-64.93270952585262
 21
34.33475764752419
 31
0.0
  0
LINE
  5
C0
330
1F
100
AcDbEntity
  8
0
  6
Continuous
 62
     7
100
AcDbLine
 10
-64.93270952585262
 20
33.2589971532226
 30
0.0
 11
-64.93270952585262
 21
34.33475764752419
 31
0.0
  0
LINE
  5
C1
330
1F
100
AcDbEntity
  8
0
  6
Continuous
 62
     7
100
AcDbLine
 10
-71.03270952585261
 20
39.37294004327419
 30
0.0
 11
-70.03270952585261
 21
39.37294004327419
 31
0.0
  0
LINE
  5
C2
330
1F
100
AcDbEntity
  8
0
  6
Continuous
 62
     7
100
AcDbLine
 10
-65.93270952585262
 20
39.37294004327419
 30
0.0
 11
-69.03270952585261
 21
39.37294004327399
 31
0.0
  0
LINE
  5
C3
330
1F
100
AcDbEntity
  8
0
  6
Continuous
 62
     7
100
AcDbLine
 10
-69.03270952585261
 20
39.37294004327399
 30
0.0
 11
-70.03270952585261
 21
39.37294004327419
 31
0.0
  0
LINE
  5
C4
330
1F
100
AcDbEntity
  8
0
  6
Continuous
 62
     7
100
AcDbLine
 10
-62.1327095258526
 20
39.37294004327399
 30
0.0
 11
-58.03270952585261
 21
39.37294004327419
 31
0.0
  0
LINE
  5
C5
330
1F
100
AcDbEntity
  8
0
  6
Continuous
 62
     7
100
AcDbLine
 10
-71.03270952585261
 20
39.37294004327419
 30
0.0
 11
-71.03270952585261
 21
37.57294004327418
 31
0.0
  0
LINE
  5
C6
330
1F
100
AcDbEntity
  8
0
  6
Continuous
 62
     7
100
AcDbLine
 10
-69.03270952585261
 20
37.57294004327398
 30
0.0
 11
-65.93270952585262
 21
37.57294004327418
 31
0.0
  0
LINE
  5
C7
330
1F
100
AcDbEntity
  8
0
  6
Continuous
 62
     7
100
AcDbLine
 10
-69.53270952585261
 20
38.87294004327399
 30
0.0
 11
-69.53270952585261
 21
38.07294004327398
 31
0.0
  0
LINE
  5
C8
330
1F
100
AcDbEntity
  8
0
  6
Continuous
 62
     7
100
AcDbLine
 10
-57.03270952585281
 20
39.37294004327362
 30
0.0
 11
-58.03270952585261
 21
39.37294004327419
 31
0.0
  0
LINE
  5
C9
330
1F
100
AcDbEntity
  8
0
  6
Continuous
 62
     7
100
AcDbLine
 10
-58.53270952585261
 20
38.87294004327399
 30
0.0
 11
-58.53270952585281
 21
38.07294004327381
 31
0.0
  0
LINE
  5
CA
330
1F
100
AcDbEntity
  8
0
  6
Continuous
 62
     7
100
AcDbLine
 10
-62.1327095258526
 20
37.57294004327418
 30
0.0
 11
-59.03270952585261
 21
37.57294004327398
 31
0.0
  0
LINE
  5
CB
330
1F
100
AcDbEntity
  8
0
  6
Continuous
 62
     7
100
AcDbLine
 10
-59.03270952585261
 20
37.57294004327398
 30
0.0
 11
-58.03270952585261
 21
37.57294004327418
 31
0.0
  0
LINE
  5
CC
330
1F
100
AcDbEntity
  8
0
  6
Continuous
 62
     7
100
AcDbLine
 10
-57.03270952585261
 20
37.57294004327418
 30
0.0
 11
-58.03270952585261
 21
37.57294004327418
 31
0.0
  0
LINE
  5
CD
330
1F
100
AcDbEntity
  8
0
  6
Continuous
 62
     7
100
AcDbLine
 10
-53.5327095258527
 20
39.9729400432737
 30
0.0
 11
-54.73270952585251
 21
39.9729400432737
 31
0.0
  0
LINE
  5
CE
330
1F
100
AcDbEntity
  8
0
  6
Continuous
 62
     7
100
AcDbLine
 10
-53.5327095258527
 20
36.9729400432737
 30
0.0
 11
-53.5327095258527
 21
39.9729400432737
 31
0.0
  0
LINE
  5
CF
330
1F
100
AcDbEntity
  8
0
  6
Continuous
 62
     7
100
AcDbLine
 10
-54.73270952585251
 20
36.9729400432737
 30
0.0
 11
-53.5327095258527
 21
36.9729400432737
 31
0.0
  0
LINE
  5
D0
330
1F
100
AcDbEntity
  8
0
  6
Continuous
 62
     7
100
AcDbLine
 10
-54.73270952585251
 20
36.9729400432737
 30
0.0
 11
-54.73270952585251
 21
39.9729400432737
 31
0.0
  0
LINE
  5
D1
330
1F
100
AcDbEntity
  8
0
  6
Continuous
 62
     7
100
AcDbLine
 10
-71.03270952585261
 20
39.37294004327419
 30
0.0
 11
-71.03270952585261
 21
43.9729400432741
 31
0.0
  0
LINE
  5
D2
330
1F
100
AcDbEntity
  8
0
  6
Continuous
 62
     7
100
AcDbLine
 10
-73.3327095258527
 20
39.9729400432737
 30
0.0
 11
-74.5327095258527
 21
39.9729400432737
 31
0.0
  0
LINE
  5
D3
330
1F
100
AcDbEntity
  8
0
  6
Continuous
 62
     7
100
AcDbLine
 10
-74.5327095258527
 20
45.9729400432739
 30
0.0
 11
-74.5327095258527
 21
39.9729400432737
 31
0.0
  0
LINE
  5
D4
330
1F
100
AcDbEntity
  8
0
  6
Continuous
 62
     7
100
AcDbLine
 10
-73.3327095258527
 20
36.9729400432737
 30
0.0
 11
-74.5327095258527
 21
36.9729400432737
 31
0.0
  0
LINE
  5
D5
330
1F
100
AcDbEntity
  8
0
  6
Continuous
 62
     7
100
AcDbLine
 10
-74.5327095258527
 20
39.9729400432737
 30
0.0
 11
-74.5327095258527
 21
36.9729400432737
 31
0.0
  0
LINE
  5
D6
330
1F
100
AcDbEntity
  8
0
  6
Continuous
 62
     7
100
AcDbLine
 10
-71.03270952585261
 20
37.57294004327418
 30
0.0
 11
-70.03270952585261
 21
37.57294004327418
 31
0.0
  0
LINE
  5
D7
330
1F
100
AcDbEntity
  8
0
  6
Continuous
 62
     7
100
AcDbLine
 10
-71.03270952585261
 20
32.9729400432741
 30
0.0
 11
-71.03270952585261
 21
37.57294004327418
 31
0.0
  0
LINE
  5
D8
330
1F
100
AcDbEntity
  8
0
  6
Continuous
 62
     7
100
AcDbLine
 10
-73.3327095258527
 20
36.9729400432737
 30
0.0
 11
-73.3327095258527
 21
39.9729400432737
 31
0.0
  0
LINE
  5
D9
330
1F
100
AcDbEntity
  8
0
  6
Continuous
 62
     7
100
AcDbLine
 10
-74.5327095258527
 20
36.9729400432737
 30
0.0
 11
-74.5327095258527
 21
30.9729400432739
 31
0.0
  0
LINE
  5
DA
330
1F
100
AcDbEntity
  8
0
  6
Continuous
 62
     7
100
AcDbLine
 10
-70.03270952585261
 20
37.57294004327418
 30
0.0
 11
-69.03270952585261
 21
37.57294004327398
 31
0.0
  0
LINE
  5
DB
330
1F
100
AcDbEntity
  8
0
  6
Continuous
 62
     7
100
AcDbLine
 10
-57.03270952585261
 20
37.57294004327418
 30
0.0
 11
-57.03270952585281
 21
32.9729400432737
 31
0.0
  0
LINE
  5
DC
330
1F
100
AcDbEntity
  8
0
  6
Continuous
 62
     7
100
AcDbLine
 10
-57.03270952585261
 20
37.57294004327418
 30
0.0
 11
-57.03270952585281
 21
39.37294004327362
 31
0.0
  0
LINE
  5
DD
330
1F
100
AcDbEntity
  8
0
  6
Continuous
 62
     7
100
AcDbLine
 10
-53.5327095258527
 20
39.9729400432737
 30
0.0
 11
-53.5327095258527
 21
45.9729400432739
 31
0.0
  0
LINE
  5
DE
330
1F
100
AcDbEntity
  8
0
  6
Continuous
 62
     7
100
AcDbLine
 10
-53.5327095258527
 20
30.9729400432739
 30
0.0
 11
-53.5327095258527
 21
36.9729400432737
 31
0.0
  0
LINE
  5
DF
330
1F
100
AcDbEntity
  8
0
  6
Continuous
 62
     7
100
AcDbLine
 10
-63.1327095258526
 20
34.33475764752411
 30
0.0
 11
-63.1327095258526
 21
33.2589971532224
 31
0.0
  0
LINE
  5
E0
330
1F
100
AcDbEntity
  8
0
  6
Continuous
 62
     7
100
AcDbLine
 10
-61.75235867565452
 20
31.4729400432733
 30
0.0
 11
-58.53270952585281
 21
31.4729400432737
 31
0.0
  0
LINE
  5
E1
330
1F
100
AcDbEntity
  8
0
  6
Continuous
 62
     7
100
AcDbLine
 10
-66.31306037605101
 20
31.4729400432733
 30
0.0
 11
-69.53270952585261
 21
31.4729400432741
 31
0.0
  0
LINE
  5
E2
330
1F
100
AcDbEntity
  8
0
  6
Continuous
 62
     7
100
AcDbLine
 10
-71.5327095258527
 20
27.9729400432739
 30
0.0
 11
-56.5327095258527
 21
27.9729400432739
 31
0.0
  0
LINE
  5
E3
330
1F
100
AcDbEntity
  8
0
  6
Continuous
 62
     7
100
AcDbLine
 10
-57.03270952585261
 20
43.9729400432741
 30
0.0
 11
-57.03270952585281
 21
39.37294004327362
 31
0.0
  0
LINE
  5
E4
330
1F
100
AcDbEntity
  8
0
  6
Continuous
 62
     7
100
AcDbLine
 10
-63.1327095258526
 20
44.4729400432733
 30
0.0
 11
-63.1327095258526
 21
40.37294004327399
 31
0.0
  0
LINE
  5
E5
330
1F
100
AcDbEntity
  8
0
  6
Continuous
 62
     7
100
AcDbLine
 10
-64.43270952585262
 20
43.9729400432733
 30
0.0
 11
-63.6327095258526
 21
43.9729400432733
 31
0.0
  0
LINE
  5
E6
330
1F
100
AcDbEntity
  8
0
  6
Continuous
 62
     7
100
AcDbLine
 10
-64.93270952585262
 20
44.4729400432733
 30
0.0
 11
-64.93270952585262
 21
40.37294004327419
 31
0.0
  0
LINE
  5
E7
330
1F
100
AcDbEntity
  8
0
  6
Continuous
 62
     7
100
AcDbLine
 10
-63.1327095258526
 20
45.4729400432733
 30
0.0
 11
-63.1327095258526
 21
44.4729400432733
 31
0.0
  0
LINE
  5
E8
330
1F
100
AcDbEntity
  8
0
  6
Continuous
 62
     7
100
AcDbLine
 10
-64.93270952585262
 20
45.4729400432733
 30
0.0
 11
-64.93270952585262
 21
44.4729400432733
 31
0.0
  0
LINE
  5
E9
330
1F
100
AcDbEntity
  8
0
  6
Continuous
 62
     7
100
AcDbLine
 10
-63.1327095258526
 20
45.4729400432733
 30
0.0
 11
-58.53270952585261
 21
45.4729400432741
 31
0.0
  0
LINE
  5
EA
330
1F
100
AcDbEntity
  8
0
  6
Continuous
 62
     7
100
AcDbLine
 10
-69.53270952585261
 20
45.4729400432741
 30
0.0
 11
-64.93270952585262
 21
45.4729400432733
 31
0.0
  0
LINE
  5
EB
330
1F
100
AcDbEntity
  8
0
  6
Continuous
 62
     7
100
AcDbLine
 10
-63.1327095258526
 20
45.4729400432733
 30
0.0
 11
-64.93270952585262
 21
45.4729400432733
 31
0.0
  0
LINE
  5
EC
330
1F
100
AcDbEntity
  8
0
  6
Continuous
 62
     7
100
AcDbLine
 10
-56.5327095258527
 20
48.9729400432739
 30
0.0
 11
-71.5327095258527
 21
48.9729400432739
 31
0.0
  0
LINE
  5
ED
330
1F
100
AcDbEntity
  8
0
  6
Continuous
 62
     7
100
AcDbLine
 10
-60.83270952585282
 20
80.4929400432726
 30
0.0
 11
-60.96529970663322
 21
80.49294004327302
 31
0.0
  0
LINE
  5
EE
330
1F
100
AcDbEntity
  8
0
  6
Continuous
 62
     7
100
AcDbLine
 10
-60.76199884773401
 20
80.49294004327257
 30
0.0
 11
-60.83270952585282
 21
80.4929400432726
 31
0.0
  0
LINE
  5
EF
330
1F
100
AcDbEntity
  8
0
  6
Continuous
 62
     7
100
AcDbLine
 10
-61.13270952585272
 20
80.49294004327271
 30
0.0
 11
-66.3327095258527
 21
80.49294004327257
 31
0.0
  0
LINE
  5
F0
330
1F
100
AcDbEntity
  8
0
  6
Continuous
 62
     7
100
AcDbLine
 10
-61.0327095258527
 20
80.4929400432726
 30
0.0
 11
-61.13270952585272
 21
80.49294004327271
 31
0.0
  0
LINE
  5
F1
330
1F
100
AcDbEntity
  8
0
  6
Continuous
 62
     7
100
AcDbLine
 10
-60.96529970663322
 20
80.49294004327302
 30
0.0
 11
-61.0327095258527
 21
80.4929400432726
 31
0.0
  0
LINE
  5
F2
330
1F
100
AcDbEntity
  8
0
  6
Continuous
 62
     7
100
AcDbLine
 10
-67.24170708467021
 20
73.99294004327157
 30
0.0
 11
-66.87285614155802
 21
73.99294004327257
 31
0.0
  0
LINE
  5
F3
330
1F
100
AcDbEntity
  8
0
  6
Continuous
 62
     7
100
AcDbLine
 10
-66.87285614155802
 20
73.99294004327257
 30
0.0
 11
-60.79128816961541
 21
73.99294004327257
 31
0.0
  0
LINE
  5
F4
330
1F
100
AcDbEntity
  8
0
  6
Continuous
 62
     7
100
AcDbLine
 10
-68.63270952585272
 20
82.49294004327268
 30
0.0
 11
-66.93270952585281
 21
82.49294004327268
 31
0.0
  0
LINE
  5
F5
330
1F
100
AcDbEntity
  8
0
  6
Continuous
 62
     7
100
AcDbLine
 10
-61.79027501915159
 20
79.16968912502446
 30
0.0
 11
-62.8659833368949
 21
78.09398080728107
 31
0.0
  0
LINE
  5
F6
330
1F
100
AcDbEntity
  8
0
  6
Continuous
 62
     7
100
AcDbLine
 10
-62.51242994630159
 20
76.53834588867068
 30
0.0
 11
-63.07811537125072
 21
75.97266046372144
 31
0.0
  0
LINE
  5
F7
330
1F
100
AcDbEntity
  8
0
  6
Continuous
 62
     7
100
AcDbLine
 10
-62.8659833368949
 20
76.89189927926395
 30
0.0
 11
-62.51242994630159
 21
76.53834588867068
 31
0.0
  0
LINE
  5
F8
330
1F
100
AcDbEntity
  8
0
  6
Continuous
 62
     7
100
AcDbLine
 10
-63.43166876184422
 20
76.32621385431472
 30
0.0
 11
-64.0327095258527
 21
76.68880504327251
 31
0.0
  0
LINE
  5
F9
330
1F
100
AcDbEntity
  8
0
  6
Continuous
 62
     7
100
AcDbLine
 10
-64.0327095258527
 20
76.68880504327251
 30
0.0
 11
-64.63375028986131
 21
76.32621385431472
 31
0.0
  0
LINE
  5
FA
330
1F
100
AcDbEntity
  8
0
  6
Continuous
 62
     7
100
AcDbLine
 10
-63.43166876184422
 20
78.65966623223025
 30
0.0
 11
-62.35596044410072
 21
79.7353745499737
 31
0.0
  0
LINE
  5
FB
330
1F
100
AcDbEntity
  8
0
  6
Continuous
 62
     7
100
AcDbLine
 10
-62.8659833368949
 20
78.09398080728107
 30
0.0
 11
-63.43166876184422
 21
78.65966623223025
 31
0.0
  0
LINE
  5
FC
330
1F
100
AcDbEntity
  8
0
  6
Continuous
 62
     7
100
AcDbLine
 10
-64.6337502898612
 20
78.65966623223031
 30
0.0
 11
-64.0327095258527
 21
78.29707504327251
 31
0.0
  0
LINE
  5
FD
330
1F
100
AcDbEntity
  8
0
  6
Continuous
 62
     7
100
AcDbLine
 10
-64.0327095258527
 20
78.29707504327251
 30
0.0
 11
-63.43166876184422
 21
78.65966623223025
 31
0.0
  0
LINE
  5
FE
330
1F
100
AcDbEntity
  8
0
  6
Continuous
 62
     7
100
AcDbLine
 10
-62.8659833368949
 20
78.09398080728107
 30
0.0
 11
-63.22857452585272
 21
77.49294004327251
 31
0.0
  0
LINE
  5
FF
330
1F
100
AcDbEntity
  8
0
  6
Continuous
 62
     7
100
AcDbLine
 10
-63.22857452585272
 20
77.49294004327251
 30
0.0
 11
-62.8659833368949
 21
76.89189927926395
 31
0.0
  0
LINE
  5
100
330
1F
100
AcDbEntity
  8
0
  6
Continuous
 62
     7
100
AcDbLine
 10
-63.07811537125072
 20
75.97266046372144
 30
0.0
 11
-63.43166876184422
 21
76.32621385431472
 31
0.0
  0
LINE
  5
101
330
1F
100
AcDbEntity
  8
0
  6
Continuous
 62
     7
100
AcDbLine
 10
-64.63375028986131
 20
76.32621385431472
 30
0.0
 11
-65.70945860760462
 21
75.25050553657138
 31
0.0
  0
LINE
  5
102
330
1F
100
AcDbEntity
  8
0
  6
Continuous
 62
     7
100
AcDbLine
 10
-66.27514403255391
 20
75.81619096152059
 30
0.0
 11
-65.19943571481052
 21
76.89189927926395
 31
0.0
  0
LINE
  5
103
330
1F
100
AcDbEntity
  8
0
  6
Continuous
 62
     7
100
AcDbLine
 10
-65.5529891054038
 20
78.44753419787435
 30
0.0
 11
-64.98730368045462
 21
79.01321962282358
 31
0.0
  0
LINE
  5
104
330
1F
100
AcDbEntity
  8
0
  6
Continuous
 62
     7
100
AcDbLine
 10
-65.19943571481052
 20
76.89189927926395
 30
0.0
 11
-64.8368445258527
 21
77.49294004327251
 31
0.0
  0
LINE
  5
105
330
1F
100
AcDbEntity
  8
0
  6
Continuous
 62
     7
100
AcDbLine
 10
-64.8368445258527
 20
77.49294004327251
 30
0.0
 11
-65.19943571481052
 21
78.09398080728107
 31
0.0
  0
LINE
  5
106
330
1F
100
AcDbEntity
  8
0
  6
Continuous
 62
     7
100
AcDbLine
 10
-65.19943571481052
 20
78.09398080728107
 30
0.0
 11
-65.5529891054038
 21
78.44753419787435
 31
0.0
  0
LINE
  5
107
330
1F
100
AcDbEntity
  8
0
  6
Continuous
 62
     7
100
AcDbLine
 10
-65.19943571481052
 20
76.89189927926395
 30
0.0
 11
-64.63375028986131
 21
76.32621385431472
 31
0.0
  0
LINE
  5
108
330
1F
100
AcDbEntity
  8
0
  6
Continuous
 62
     7
100
AcDbLine
 10
-64.98730368045462
 20
79.01321962282358
 30
0.0
 11
-64.6337502898612
 21
78.65966623223031
 31
0.0
  0
LINE
  5
109
330
1F
100
AcDbEntity
  8
0
  6
Continuous
 62
     7
100
AcDbLine
 10
-67.07669038573492
 20
80.49294004327263
 30
0.0
 11
-67.10011934507232
 21
80.492940043273
 31
0.0
  0
LINE
  5
10A
330
1F
100
AcDbEntity
  8
0
  6
Continuous
 62
     7
100
AcDbLine
 10
-67.02506211998072
 20
80.4929400432726
 30
0.0
 11
-67.07669038573492
 21
80.49294004327263
 31
0.0
  0
LINE
  5
10B
330
1F
100
AcDbEntity
  8
0
  6
Continuous
 62
     7
100
AcDbLine
 10
-66.93270952585281
 20
80.49294004327288
 30
0.0
 11
-67.02506211998072
 21
80.4929400432726
 31
0.0
  0
LINE
  5
10C
330
1F
100
AcDbEntity
  8
0
  6
Continuous
 62
     7
100
AcDbLine
 10
-67.10011934507232
 20
80.492940043273
 30
0.0
 11
-67.2417070846701
 21
80.4929400432726
 31
0.0
  0
LINE
  5
10D
330
1F
100
AcDbEntity
  8
0
  6
Continuous
 62
     7
100
AcDbLine
 10
-60.83270952585282
 20
80.4929400432726
 30
0.0
 11
-60.96529970663322
 21
80.49294004327302
 31
0.0
  0
LINE
  5
10E
330
1F
100
AcDbEntity
  8
0
  6
Continuous
 62
     7
100
AcDbLine
 10
-60.76199884773401
 20
80.49294004327257
 30
0.0
 11
-60.83270952585282
 21
80.4929400432726
 31
0.0
  0
LINE
  5
10F
330
1F
100
AcDbEntity
  8
0
  6
Continuous
 62
     7
100
AcDbLine
 10
-61.0327095258527
 20
80.4929400432726
 30
0.0
 11
-61.13270952585272
 21
80.49294004327271
 31
0.0
  0
LINE
  5
110
330
1F
100
AcDbEntity
  8
0
  6
Continuous
 62
     7
100
AcDbLine
 10
-60.96529970663322
 20
80.49294004327302
 30
0.0
 11
-61.0327095258527
 21
80.4929400432726
 31
0.0
  0
LINE
  5
111
330
1F
100
AcDbEntity
  8
0
  6
Continuous
 62
     7
100
AcDbLine
 10
-60.83270952585282
 20
80.4929400432726
 30
0.0
 11
-60.96529970663322
 21
80.49294004327302
 31
0.0
  0
LINE
  5
112
330
1F
100
AcDbEntity
  8
0
  6
Continuous
 62
     7
100
AcDbLine
 10
-60.76199884773401
 20
80.49294004327257
 30
0.0
 11
-60.83270952585282
 21
80.4929400432726
 31
0.0
  0
LINE
  5
113
330
1F
100
AcDbEntity
  8
0
  6
Continuous
 62
     7
100
AcDbLine
 10
-61.0327095258527
 20
80.4929400432726
 30
0.0
 11
-61.13270952585272
 21
80.49294004327271
 31
0.0
  0
LINE
  5
114
330
1F
100
AcDbEntity
  8
0
  6
Continuous
 62
     7
100
AcDbLine
 10
-60.96529970663322
 20
80.49294004327302
 30
0.0
 11
-61.0327095258527
 21
80.4929400432726
 31
0.0
  0
LINE
  5
115
330
1F
100
AcDbEntity
  8
0
  6
Continuous
 62
     7
100
AcDbLine
 10
-23.18270952585271
 20
82.49294004327271
 30
0.0
 11
-21.48270952585269
 21
82.49294004327265
 31
0.0
  0
LINE
  5
116
330
1F
100
AcDbEntity
  8
0
  6
Continuous
 62
     7
100
AcDbLine
 10
-27.58270952585268
 20
79.99294004327285
 30
0.0
 11
-27.5827095258526
 21
77.79294004327284
 31
0.0
  0
LINE
  5
117
330
1F
100
AcDbEntity
  8
0
  6
Continuous
 62
     7
100
AcDbLine
 10
-27.58270952585268
 20
79.99294004327285
 30
0.0
 11
-27.5827095258526
 21
77.79294004327284
 31
0.0
  0
LINE
  5
118
330
1F
100
AcDbEntity
  8
0
  6
Continuous
 62
     7
100
AcDbLine
 10
-67.44611135885582
 20
67.79294004327258
 30
0.0
 11
-67.24170708467021
 21
68.29294004327258
 31
0.0
  0
LINE
  5
119
330
1F
100
AcDbEntity
  8
0
  6
Continuous
 62
     7
100
AcDbLine
 10
-59.0806877906917
 20
65.49294004327258
 30
0.0
 11
-59.1370292007686
 21
65.49294004327278
 31
0.0
  0
LINE
  5
11A
330
1F
100
AcDbEntity
  8
0
  6
Continuous
 62
     7
100
AcDbLine
 10
-57.4896087878809
 20
65.49294004327268
 30
0.0
 11
-57.50090757738671
 21
65.49294004327288
 31
0.0
  0
LINE
  5
11B
330
1F
100
AcDbEntity
  8
0
  6
Continuous
 62
     7
100
AcDbLine
 10
-67.2990076181671
 20
67.79294004327369
 30
0.0
 11
-67.36518149689532
 21
67.79294004327369
 31
0.0
  0
LINE
  5
11C
330
1F
100
AcDbEntity
  8
0
  6
Continuous
 62
     7
100
AcDbLine
 10
-67.8276822553931
 20
67.79294004327258
 30
0.0
 11
-68.26526954651031
 21
67.79294004327389
 31
0.0
  0
LINE
  5
11D
330
1F
100
AcDbEntity
  8
0
  6
Continuous
 62
     7
100
AcDbLine
 10
-68.26526954651031
 20
67.79294004327389
 30
0.0
 11
-68.4809408971936
 21
67.79294004327298
 31
0.0
  0
LINE
  5
11E
330
1F
100
AcDbEntity
  8
0
  6
Continuous
 62
     7
100
AcDbLine
 10
-68.4809408971936
 20
67.79294004327298
 30
0.0
 11
-68.5846087031503
 21
67.79294004327389
 31
0.0
  0
LINE
  5
11F
330
1F
100
AcDbEntity
  8
0
  6
Continuous
 62
     7
100
AcDbLine
 10
-71.5327095258527
 20
65.49294004327268
 30
0.0
 11
-71.5327095258527
 21
67.79294004327248
 31
0.0
  0
LINE
  5
120
330
1F
100
AcDbEntity
  8
0
  6
Continuous
 62
     7
100
AcDbLine
 10
-54.34301256388569
 20
65.49294004327298
 30
0.0
 11
-54.3137232420044
 21
65.49294004327298
 31
0.0
  0
LINE
  5
121
330
1F
100
AcDbEntity
  8
0
  6
Continuous
 62
     7
100
AcDbLine
 10
-56.38270952585272
 20
65.49294004327278
 30
0.0
 11
-56.5209498350245
 21
65.49294004327268
 31
0.0
  0
LINE
  5
122
330
1F
100
AcDbEntity
  8
0
  6
Continuous
 62
     7
100
AcDbLine
 10
-56.30154372453892
 20
65.49294004327268
 30
0.0
 11
-56.38270952585272
 21
65.49294004327278
 31
0.0
  0
LINE
  5
123
330
1F
100
AcDbEntity
  8
0
  6
Continuous
 62
     7
100
AcDbLine
 10
-54.81595393486832
 20
65.49294004327268
 30
0.0
 11
-56.25220087308942
 21
65.49294004327288
 31
0.0
  0
LINE
  5
124
330
1F
100
AcDbEntity
  8
0
  6
Continuous
 62
     7
100
AcDbLine
 10
-56.25220087308942
 20
65.49294004327288
 30
0.0
 11
-56.30154372453892
 21
65.49294004327268
 31
0.0
  0
LINE
  5
125
330
1F
100
AcDbEntity
  8
0
  6
Continuous
 62
     7
100
AcDbLine
 10
-54.4552126182145
 20
65.49294004327258
 30
0.0
 11
-54.66727663259771
 21
65.49294004327298
 31
0.0
  0
LINE
  5
126
330
1F
100
AcDbEntity
  8
0
  6
Continuous
 62
     7
100
AcDbLine
 10
-54.66727663259771
 20
65.49294004327298
 30
0.0
 11
-54.696565954479
 21
65.49294004327298
 31
0.0
  0
LINE
  5
127
330
1F
100
AcDbEntity
  8
0
  6
Continuous
 62
     7
100
AcDbLine
 10
-53.5327095258527
 20
65.49294004327258
 30
0.0
 11
-54.3137232420044
 21
65.49294004327298
 31
0.0
  0
LINE
  5
128
330
1F
100
AcDbEntity
  8
0
  6
Continuous
 62
     7
100
AcDbLine
 10
-74.5327095258527
 20
67.79294004327258
 30
0.0
 11
-73.6872411133467
 21
67.79294004327258
 31
0.0
  0
LINE
  5
129
330
1F
100
AcDbEntity
  8
0
  6
Continuous
 62
     7
100
AcDbLine
 10
-74.5327095258527
 20
65.49294004327288
 30
0.0
 11
-74.5327095258527
 21
67.79294004327258
 31
0.0
  0
LINE
  5
12A
330
1F
100
AcDbEntity
  8
0
  6
Continuous
 62
     7
100
AcDbLine
 10
-58.86128168020601
 20
65.49294004327258
 30
0.0
 11
-59.0806877906917
 21
65.49294004327258
 31
0.0
  0
LINE
  5
12B
330
1F
100
AcDbEntity
  8
0
  6
Continuous
 62
     7
100
AcDbLine
 10
-58.72707460724242
 20
65.49294004327298
 30
0.0
 11
-58.86128168020601
 21
65.49294004327258
 31
0.0
  0
LINE
  5
12C
330
1F
100
AcDbEntity
  8
0
  6
Continuous
 62
     7
100
AcDbLine
 10
-59.23270952585271
 20
65.49294004327258
 30
0.0
 11
-59.23270952585271
 21
82.29294004327258
 31
0.0
  0
LINE
  5
12D
330
1F
100
AcDbEntity
  8
0
  6
Continuous
 62
     7
100
AcDbLine
 10
-59.36113665059899
 20
65.49294004327298
 30
0.0
 11
-59.2655451620878
 21
65.49294004327258
 31
0.0
  0
LINE
  5
12E
330
1F
100
AcDbEntity
  8
0
  6
Continuous
 62
     7
100
AcDbLine
 10
-59.2655451620878
 20
65.49294004327258
 30
0.0
 11
-59.23270952585271
 21
65.49294004327258
 31
0.0
  0
LINE
  5
12F
330
1F
100
AcDbEntity
  8
0
  6
Continuous
 62
     7
100
AcDbLine
 10
-59.6440343912579
 20
65.49294004327258
 30
0.0
 11
-59.36113665059899
 21
65.49294004327298
 31
0.0
  0
LINE
  5
130
330
1F
100
AcDbEntity
  8
0
  6
Continuous
 62
     7
100
AcDbLine
 10
-60.83270952585282
 20
80.4929400432726
 30
0.0
 11
-60.96529970663322
 21
80.49294004327302
 31
0.0
  0
LINE
  5
131
330
1F
100
AcDbEntity
  8
0
  6
Continuous
 62
     7
100
AcDbLine
 10
-60.76199884773401
 20
80.49294004327257
 30
0.0
 11
-60.83270952585282
 21
80.4929400432726
 31
0.0
  0
LINE
  5
132
330
1F
100
AcDbEntity
  8
0
  6
Continuous
 62
     7
100
AcDbLine
 10
-61.13270952585272
 20
80.49294004327271
 30
0.0
 11
-66.93270952585281
 21
80.49294004327288
 31
0.0
  0
LINE
  5
133
330
1F
100
AcDbEntity
  8
0
  6
Continuous
 62
     7
100
AcDbLine
 10
-61.0327095258527
 20
80.4929400432726
 30
0.0
 11
-61.13270952585272
 21
80.49294004327271
 31
0.0
  0
LINE
  5
134
330
1F
100
AcDbEntity
  8
0
  6
Continuous
 62
     7
100
AcDbLine
 10
-60.96529970663322
 20
80.49294004327302
 30
0.0
 11
-61.0327095258527
 21
80.4929400432726
 31
0.0
  0
LINE
  5
135
330
1F
100
AcDbEntity
  8
0
  6
Continuous
 62
     7
100
AcDbLine
 10
-60.76199884773401
 20
65.69726047537648
 30
0.0
 11
-60.76199884773401
 21
80.49294004327257
 31
0.0
  0
LINE
  5
136
330
1F
100
AcDbEntity
  8
0
  6
Continuous
 62
     7
100
AcDbLine
 10
-60.76199884773401
 20
65.69726047537648
 30
0.0
 11
-60.6440343912579
 21
65.49294004327258
 31
0.0
  0
LINE
  5
137
330
1F
100
AcDbEntity
  8
0
  6
Continuous
 62
     7
100
AcDbLine
 10
-60.6440343912579
 20
65.49294004327258
 30
0.0
 11
-59.6440343912579
 21
65.49294004327258
 31
0.0
  0
LINE
  5
138
330
1F
100
AcDbEntity
  8
0
  6
Continuous
 62
     7
100
AcDbLine
 10
-60.96529970663322
 20
65.49294004327298
 30
0.0
 11
-60.83270952585282
 21
65.49294004327258
 31
0.0
  0
LINE
  5
139
330
1F
100
AcDbEntity
  8
0
  6
Continuous
 62
     7
100
AcDbLine
 10
-60.76529970663331
 20
65.49294004327298
 30
0.0
 11
-60.6440343912579
 21
65.49294004327258
 31
0.0
  0
LINE
  5
13A
330
1F
100
AcDbEntity
  8
0
  6
Continuous
 62
     7
100
AcDbLine
 10
-60.83270952585282
 20
65.49294004327258
 30
0.0
 11
-60.76529970663331
 21
65.49294004327298
 31
0.0
  0
LINE
  5
13B
330
1F
100
AcDbEntity
  8
0
  6
Continuous
 62
     7
100
AcDbLine
 10
-61.0327095258527
 20
65.49294004327258
 30
0.0
 11
-60.96529970663322
 21
65.49294004327298
 31
0.0
  0
LINE
  5
13C
330
1F
100
AcDbEntity
  8
0
  6
Continuous
 62
     7
100
AcDbLine
 10
-62.0497957430717
 20
82.49294004327263
 30
0.0
 11
-62.0497957430717
 21
92.79294004327264
 31
0.0
  0
LINE
  5
13D
330
1F
100
AcDbEntity
  8
0
  6
Continuous
 62
     7
100
AcDbLine
 10
-61.2042824011066
 20
93.79294004327267
 30
0.0
 11
-58.53270952585281
 21
93.79294004327267
 31
0.0
  0
LINE
  5
13E
330
1F
100
AcDbEntity
  8
0
  6
Continuous
 62
     7
100
AcDbLine
 10
-63.13270952585272
 20
93.79294004327284
 30
0.0
 11
-61.2042824011066
 21
93.79294004327267
 31
0.0
  0
LINE
  5
13F
330
1F
100
AcDbEntity
  8
0
  6
Continuous
 62
     7
100
AcDbLine
 10
-63.13270952585272
 20
93.79294004327284
 30
0.0
 11
-63.13270952585272
 21
92.79294004327267
 31
0.0
  0
LINE
  5
140
330
1F
100
AcDbEntity
  8
0
  6
Continuous
 62
     7
100
AcDbLine
 10
-64.9327095258527
 20
93.79294004327284
 30
0.0
 11
-64.9327095258527
 21
92.79294004327267
 31
0.0
  0
LINE
  5
141
330
1F
100
AcDbEntity
  8
0
  6
Continuous
 62
     7
100
AcDbLine
 10
-67.11447970978152
 20
67.79294004327278
 30
0.0
 11
-67.28773477902202
 21
67.79294004327278
 31
0.0
  0
LINE
  5
142
330
1F
100
AcDbEntity
  8
0
  6
Continuous
 62
     7
100
AcDbLine
 10
-67.28773477902202
 20
67.79294004327278
 30
0.0
 11
-67.2990076181671
 21
67.79294004327369
 31
0.0
  0
LINE
  5
143
330
1F
100
AcDbEntity
  8
0
  6
Continuous
 62
     7
100
AcDbLine
 10
-70.8959158440875
 20
67.79294004327369
 30
0.0
 11
-70.56451147431882
 21
67.79294004327399
 31
0.0
  0
LINE
  5
144
330
1F
100
AcDbEntity
  8
0
  6
Continuous
 62
     7
100
AcDbLine
 10
-71.17837093045462
 20
67.79294004327369
 30
0.0
 11
-70.8981052305886
 21
67.79294004327268
 31
0.0
  0
LINE
  5
145
330
1F
100
AcDbEntity
  8
0
  6
Continuous
 62
     7
100
AcDbLine
 10
-71.5327095258527
 20
67.79294004327248
 30
0.0
 11
-71.17837093045462
 21
67.79294004327369
 31
0.0
  0
LINE
  5
146
330
1F
100
AcDbEntity
  8
0
  6
Continuous
 62
     7
100
AcDbLine
 10
-70.56451147431882
 20
67.79294004327399
 30
0.0
 11
-70.5042046808285
 21
67.79294004327268
 31
0.0
  0
LINE
  5
147
330
1F
100
AcDbEntity
  8
0
  6
Continuous
 62
     7
100
AcDbLine
 10
-70.5042046808285
 20
67.79294004327268
 30
0.0
 11
-68.83270952585282
 21
67.79294004327248
 31
0.0
  0
LINE
  5
148
330
1F
100
AcDbEntity
  8
0
  6
Continuous
 62
     7
100
AcDbLine
 10
-68.5846087031503
 20
67.79294004327389
 30
0.0
 11
-68.7790040134792
 21
67.79294004327379
 31
0.0
  0
LINE
  5
149
330
1F
100
AcDbEntity
  8
0
  6
Continuous
 62
     7
100
AcDbLine
 10
-68.7790040134792
 20
67.79294004327379
 30
0.0
 11
-68.83270952585282
 21
67.79294004327248
 31
0.0
  0
LINE
  5
14A
330
1F
100
AcDbEntity
  8
0
  6
Continuous
 62
     7
100
AcDbLine
 10
-67.11447970978152
 20
67.79294004327278
 30
0.0
 11
-67.0327095258527
 21
67.79294004327369
 31
0.0
  0
LINE
  5
14B
330
1F
100
AcDbEntity
  8
0
  6
Continuous
 62
     7
100
AcDbLine
 10
-67.36518149689532
 20
67.79294004327369
 30
0.0
 11
-67.44611135885582
 21
67.79294004327258
 31
0.0
  0
LINE
  5
14C
330
1F
100
AcDbEntity
  8
0
  6
Continuous
 62
     7
100
AcDbLine
 10
-67.57057749149682
 20
67.79294004327389
 30
0.0
 11
-67.8276822553931
 21
67.79294004327258
 31
0.0
  0
LINE
  5
14D
330
1F
100
AcDbEntity
  8
0
  6
Continuous
 62
     7
100
AcDbLine
 10
-67.44611135885582
 20
67.79294004327258
 30
0.0
 11
-67.57057749149682
 21
67.79294004327389
 31
0.0
  0
LINE
  5
14E
330
1F
100
AcDbEntity
  8
0
  6
Continuous
 62
     7
100
AcDbLine
 10
-70.8981052305886
 20
67.79294004327268
 30
0.0
 11
-70.8959158440875
 21
67.79294004327369
 31
0.0
  0
LINE
  5
14F
330
1F
100
AcDbEntity
  8
0
  6
Continuous
 62
     7
100
AcDbLine
 10
-73.33270952585282
 20
67.79294004327268
 30
0.0
 11
-71.99599043855441
 21
67.79294004327268
 31
0.0
  0
LINE
  5
150
330
1F
100
AcDbEntity
  8
0
  6
Continuous
 62
     7
100
AcDbLine
 10
-73.65415417398252
 20
67.79294004327258
 30
0.0
 11
-73.5047860269794
 21
67.79294004327369
 31
0.0
  0
LINE
  5
151
330
1F
100
AcDbEntity
  8
0
  6
Continuous
 62
     7
100
AcDbLine
 10
-73.45341499207491
 20
67.79294004327369
 30
0.0
 11
-73.33270952585282
 21
67.79294004327268
 31
0.0
  0
LINE
  5
152
330
1F
100
AcDbEntity
  8
0
  6
Continuous
 62
     7
100
AcDbLine
 10
-73.5047860269794
 20
67.79294004327369
 30
0.0
 11
-73.45341499207491
 21
67.79294004327369
 31
0.0
  0
LINE
  5
153
330
1F
100
AcDbEntity
  8
0
  6
Continuous
 62
     7
100
AcDbLine
 10
-71.99599043855441
 20
67.79294004327268
 30
0.0
 11
-71.6020898887944
 21
67.79294004327268
 31
0.0
  0
LINE
  5
154
330
1F
100
AcDbEntity
  8
0
  6
Continuous
 62
     7
100
AcDbLine
 10
-71.6020898887944
 20
67.79294004327268
 30
0.0
 11
-71.5327095258527
 21
67.79294004327248
 31
0.0
  0
LINE
  5
155
330
1F
100
AcDbEntity
  8
0
  6
Continuous
 62
     7
100
AcDbLine
 10
-74.5327095258527
 20
77.49294004327379
 30
0.0
 11
-74.5327095258527
 21
67.79294004327258
 31
0.0
  0
LINE
  5
156
330
1F
100
AcDbEntity
  8
0
  6
Continuous
 62
     7
100
AcDbLine
 10
-71.5327095258527
 20
82.49294004327254
 30
0.0
 11
-56.5327095258527
 21
82.49294004327254
 31
0.0
  0
LINE
  5
157
330
1F
100
AcDbEntity
  8
0
  6
Continuous
 62
     7
100
AcDbLine
 10
-68.83270952585282
 20
82.29294004327252
 30
0.0
 11
-67.0327095258527
 21
80.4929400432726
 31
0.0
  0
LINE
  5
158
330
1F
100
AcDbEntity
  8
0
  6
Continuous
 62
     7
100
AcDbLine
 10
-67.07669038573492
 20
80.49294004327263
 30
0.0
 11
-67.10011934507232
 21
80.492940043273
 31
0.0
  0
LINE
  5
159
330
1F
100
AcDbEntity
  8
0
  6
Continuous
 62
     7
100
AcDbLine
 10
-67.0327095258527
 20
80.4929400432726
 30
0.0
 11
-67.07669038573492
 21
80.49294004327263
 31
0.0
  0
LINE
  5
15A
330
1F
100
AcDbEntity
  8
0
  6
Continuous
 62
     7
100
AcDbLine
 10
-67.02506211998072
 20
80.4929400432726
 30
0.0
 11
-67.0327095258527
 21
80.4929400432726
 31
0.0
  0
LINE
  5
15B
330
1F
100
AcDbEntity
  8
0
  6
Continuous
 62
     7
100
AcDbLine
 10
-67.24170708467021
 20
68.29294004327258
 30
0.0
 11
-67.2417070846701
 21
80.4929400432726
 31
0.0
  0
LINE
  5
15C
330
1F
100
AcDbEntity
  8
0
  6
Continuous
 62
     7
100
AcDbLine
 10
-66.4327095258527
 20
80.4828379918292
 30
0.0
 11
-66.4327095258527
 21
80.49294004327263
 31
0.0
  0
LINE
  5
15D
330
1F
100
AcDbEntity
  8
0
  6
Continuous
 62
     7
100
AcDbLine
 10
-66.93270952585281
 20
80.49294004327288
 30
0.0
 11
-67.02506211998072
 21
80.4929400432726
 31
0.0
  0
LINE
  5
15E
330
1F
100
AcDbEntity
  8
0
  6
Continuous
 62
     7
100
AcDbLine
 10
-67.10011934507232
 20
80.492940043273
 30
0.0
 11
-67.2417070846701
 21
80.4929400432726
 31
0.0
  0
LINE
  5
15F
330
1F
100
AcDbEntity
  8
0
  6
Continuous
 62
     7
100
AcDbLine
 10
-71.5327095258527
 20
82.49294004327254
 30
0.0
 11
-71.5327095258527
 21
67.79294004327248
 31
0.0
  0
LINE
  5
160
330
1F
100
AcDbEntity
  8
0
  6
Continuous
 62
     7
100
AcDbLine
 10
-73.65415417398252
 20
67.79294004327258
 30
0.0
 11
-73.6872411133467
 21
67.79294004327258
 31
0.0
  0
LINE
  5
161
330
1F
100
AcDbEntity
  8
0
  6
Continuous
 62
     7
100
AcDbLine
 10
-68.83270952585282
 20
67.79294004327248
 30
0.0
 11
-68.83270952585282
 21
82.29294004327252
 31
0.0
  0
LINE
  5
162
330
1F
100
AcDbEntity
  8
0
  6
Continuous
 62
     7
100
AcDbLine
 10
-66.01562330863392
 20
82.49294004327263
 30
0.0
 11
-66.01562330863392
 21
92.79294004327264
 31
0.0
  0
LINE
  5
163
330
1F
100
AcDbEntity
  8
0
  6
Continuous
 62
     7
100
AcDbLine
 10
-63.13270952585272
 20
92.29294004327267
 30
0.0
 11
-64.9327095258527
 21
92.29294004327267
 31
0.0
  0
LINE
  5
164
330
1F
100
AcDbEntity
  8
0
  6
Continuous
 62
     7
100
AcDbLine
 10
-64.9327095258527
 20
92.29294004327267
 30
0.0
 11
-64.9327095258527
 21
92.79294004327267
 31
0.0
  0
LINE
  5
165
330
1F
100
AcDbEntity
  8
0
  6
Continuous
 62
     7
100
AcDbLine
 10
-63.13270952585272
 20
92.29294004327267
 30
0.0
 11
-63.13270952585272
 21
92.79294004327267
 31
0.0
  0
LINE
  5
166
330
1F
100
AcDbEntity
  8
0
  6
Continuous
 62
     7
100
AcDbLine
 10
-69.53270952585281
 20
92.79294004327264
 30
0.0
 11
-69.53270952585281
 21
82.49294004327263
 31
0.0
  0
LINE
  5
167
330
1F
100
AcDbEntity
  8
0
  6
Continuous
 62
     7
100
AcDbLine
 10
-66.861136650599
 20
93.79294004327267
 30
0.0
 11
-69.53270952585281
 21
93.79294004327267
 31
0.0
  0
LINE
  5
168
330
1F
100
AcDbEntity
  8
0
  6
Continuous
 62
     7
100
AcDbLine
 10
-69.53270952585281
 20
92.79294004327264
 30
0.0
 11
-69.53270952585281
 21
93.79294004327267
 31
0.0
  0
LINE
  5
169
330
1F
100
AcDbEntity
  8
0
  6
Continuous
 62
     7
100
AcDbLine
 10
-64.9327095258527
 20
93.79294004327284
 30
0.0
 11
-66.861136650599
 21
93.79294004327267
 31
0.0
  0
LINE
  5
16A
330
1F
100
AcDbEntity
  8
0
  6
Continuous
 62
     7
100
AcDbLine
 10
-69.53270952585281
 20
93.79294004327267
 30
0.0
 11
-70.03270952585281
 21
93.79294004327281
 31
0.0
  0
LINE
  5
16B
330
1F
100
AcDbEntity
  8
0
  6
Continuous
 62
     7
100
AcDbLine
 10
-71.03270952585281
 20
82.49294004327265
 30
0.0
 11
-71.03270952585281
 21
92.79294004327281
 31
0.0
  0
LINE
  5
16C
330
1F
100
AcDbEntity
  8
0
  6
Continuous
 62
     7
100
AcDbLine
 10
-68.83270952585282
 20
82.29294004327252
 30
0.0
 11
-59.23270952585271
 21
82.29294004327258
 31
0.0
  0
LINE
  5
16D
330
1F
100
AcDbEntity
  8
0
  6
Continuous
 62
     7
100
AcDbLine
 10
-74.5327095258527
 20
82.49294004327282
 30
0.0
 11
-71.5327095258527
 21
82.49294004327254
 31
0.0
  0
LINE
  5
16E
330
1F
100
AcDbEntity
  8
0
  6
Continuous
 62
     7
100
AcDbLine
 10
-57.50090757738671
 20
65.49294004327288
 30
0.0
 11
-58.2827095258527
 21
65.49294004327278
 31
0.0
  0
LINE
  5
16F
330
1F
100
AcDbEntity
  8
0
  6
Continuous
 62
     7
100
AcDbLine
 10
-61.0327095258527
 20
80.4929400432726
 30
0.0
 11
-59.23270952585271
 21
82.29294004327258
 31
0.0
  0
LINE
  5
170
330
1F
100
AcDbEntity
  8
0
  6
Continuous
 62
     7
100
AcDbLine
 10
-57.26770952585279
 20
65.49294004327278
 30
0.0
 11
-57.43270952585282
 21
65.49294004327278
 31
0.0
  0
LINE
  5
171
330
1F
100
AcDbEntity
  8
0
  6
Continuous
 62
     7
100
AcDbLine
 10
-56.5327095258527
 20
65.49294004327258
 30
0.0
 11
-56.81788629803872
 21
65.49294004327298
 31
0.0
  0
LINE
  5
172
330
1F
100
AcDbEntity
  8
0
  6
Continuous
 62
     7
100
AcDbLine
 10
-56.81788629803872
 20
65.49294004327298
 30
0.0
 11
-57.03001833239462
 21
65.49294004327298
 31
0.0
  0
LINE
  5
173
330
1F
100
AcDbEntity
  8
0
  6
Continuous
 62
     7
100
AcDbLine
 10
-57.07148405723031
 20
65.49294004327268
 30
0.0
 11
-57.17143968863191
 21
65.49294004327298
 31
0.0
  0
LINE
  5
174
330
1F
100
AcDbEntity
  8
0
  6
Continuous
 62
     7
100
AcDbLine
 10
-57.03001833239462
 20
65.49294004327298
 30
0.0
 11
-57.07148405723031
 21
65.49294004327268
 31
0.0
  0
LINE
  5
175
330
1F
100
AcDbEntity
  8
0
  6
Continuous
 62
     7
100
AcDbLine
 10
-57.17143968863191
 20
65.49294004327298
 30
0.0
 11
-57.26770952585279
 21
65.49294004327278
 31
0.0
  0
LINE
  5
176
330
1F
100
AcDbEntity
  8
0
  6
Continuous
 62
     7
100
AcDbLine
 10
-57.43270952585282
 20
65.49294004327278
 30
0.0
 11
-57.4896087878809
 21
65.49294004327268
 31
0.0
  0
LINE
  5
177
330
1F
100
AcDbEntity
  8
0
  6
Continuous
 62
     7
100
AcDbLine
 10
-58.53270952585281
 20
92.79294004327264
 30
0.0
 11
-58.53270952585281
 21
93.79294004327267
 31
0.0
  0
LINE
  5
178
330
1F
100
AcDbEntity
  8
0
  6
Continuous
 62
     7
100
AcDbLine
 10
-58.53270952585281
 20
92.79294004327264
 30
0.0
 11
-58.53270952585281
 21
82.49294004327263
 31
0.0
  0
LINE
  5
179
330
1F
100
AcDbEntity
  8
0
  6
Continuous
 62
     7
100
AcDbLine
 10
-59.1370292007686
 20
65.49294004327278
 30
0.0
 11
-59.23270952585271
 21
65.49294004327258
 31
0.0
  0
LINE
  5
17A
330
1F
100
AcDbEntity
  8
0
  6
Continuous
 62
     7
100
AcDbLine
 10
-58.2827095258527
 20
65.49294004327278
 30
0.0
 11
-58.72707460724242
 21
65.49294004327298
 31
0.0
  0
LINE
  5
17B
330
1F
100
AcDbEntity
  8
0
  6
Continuous
 62
     7
100
AcDbLine
 10
-58.53270952585281
 20
93.79294004327267
 30
0.0
 11
-58.03270952585281
 21
93.79294004327281
 31
0.0
  0
LINE
  5
17C
330
1F
100
AcDbEntity
  8
0
  6
Continuous
 62
     7
100
AcDbLine
 10
-74.5327095258527
 20
82.49294004327282
 30
0.0
 11
-74.5327095258527
 21
77.49294004327379
 31
0.0
  0
LINE
  5
17D
330
1F
100
AcDbEntity
  8
0
  6
Continuous
 62
     7
100
AcDbLine
 10
-54.34301256388569
 20
65.49294004327298
 30
0.0
 11
-54.42834798837642
 21
65.49294004327258
 31
0.0
  0
LINE
  5
17E
330
1F
100
AcDbEntity
  8
0
  6
Continuous
 62
     7
100
AcDbLine
 10
-54.42834798837642
 20
65.49294004327258
 30
0.0
 11
-54.4552126182145
 21
65.49294004327258
 31
0.0
  0
LINE
  5
17F
330
1F
100
AcDbEntity
  8
0
  6
Continuous
 62
     7
100
AcDbLine
 10
-54.696565954479
 20
65.49294004327298
 30
0.0
 11
-54.73270952585271
 21
65.49294004327278
 31
0.0
  0
LINE
  5
180
330
1F
100
AcDbEntity
  8
0
  6
Continuous
 62
     7
100
AcDbLine
 10
-54.73270952585271
 20
65.49294004327278
 30
0.0
 11
-54.78908930503032
 21
65.49294004327258
 31
0.0
  0
LINE
  5
181
330
1F
100
AcDbEntity
  8
0
  6
Continuous
 62
     7
100
AcDbLine
 10
-54.78908930503032
 20
65.49294004327258
 30
0.0
 11
-54.81595393486832
 21
65.49294004327268
 31
0.0
  0
LINE
  5
182
330
1F
100
AcDbEntity
  8
0
  6
Continuous
 62
     7
100
AcDbLine
 10
-56.5209498350245
 20
65.49294004327268
 30
0.0
 11
-56.5327095258527
 21
65.49294004327258
 31
0.0
  0
LINE
  5
183
330
1F
100
AcDbEntity
  8
0
  6
Continuous
 62
     7
100
AcDbLine
 10
-56.5327095258527
 20
65.49294004327258
 30
0.0
 11
-56.5327095258527
 21
82.49294004327254
 31
0.0
  0
LINE
  5
184
330
1F
100
AcDbEntity
  8
0
  6
Continuous
 62
     7
100
AcDbLine
 10
-57.03270952585281
 20
82.49294004327265
 30
0.0
 11
-57.03270952585281
 21
92.79294004327281
 31
0.0
  0
LINE
  5
185
330
1F
100
AcDbEntity
  8
0
  6
Continuous
 62
     7
100
AcDbLine
 10
-53.5327095258527
 20
82.49294004327263
 30
0.0
 11
-56.5327095258527
 21
82.49294004327254
 31
0.0
  0
LINE
  5
186
330
1F
100
AcDbEntity
  8
0
  6
Continuous
 62
     7
100
AcDbLine
 10
-53.5327095258527
 20
65.49294004327258
 30
0.0
 11
-53.5327095258527
 21
77.49294004327379
 31
0.0
  0
LINE
  5
187
330
1F
100
AcDbEntity
  8
0
  6
Continuous
 62
     7
100
AcDbLine
 10
-53.5327095258527
 20
77.49294004327379
 30
0.0
 11
-53.5327095258527
 21
82.49294004327263
 31
0.0
  0
LINE
  5
188
330
1F
100
AcDbEntity
  8
0
  6
Continuous
 62
     7
100
AcDbLine
 10
-59.0806877906917
 20
65.49294004327258
 30
0.0
 11
-59.1370292007686
 21
65.49294004327278
 31
0.0
  0
LINE
  5
189
330
1F
100
AcDbEntity
  8
0
  6
Continuous
 62
     7
100
AcDbLine
 10
-57.4896087878809
 20
65.49294004327268
 30
0.0
 11
-57.50090757738671
 21
65.49294004327288
 31
0.0
  0
LINE
  5
18A
330
1F
100
AcDbEntity
  8
0
  6
Continuous
 62
     7
100
AcDbLine
 10
-67.2990076181671
 20
67.79294004327369
 30
0.0
 11
-67.36518149689532
 21
67.79294004327369
 31
0.0
  0
LINE
  5
18B
330
1F
100
AcDbEntity
  8
0
  6
Continuous
 62
     7
100
AcDbLine
 10
-67.8276822553931
 20
67.79294004327258
 30
0.0
 11
-68.26526954651031
 21
67.79294004327389
 31
0.0
  0
LINE
  5
18C
330
1F
100
AcDbEntity
  8
0
  6
Continuous
 62
     7
100
AcDbLine
 10
-68.26526954651031
 20
67.79294004327389
 30
0.0
 11
-68.4809408971936
 21
67.79294004327298
 31
0.0
  0
LINE
  5
18D
330
1F
100
AcDbEntity
  8
0
  6
Continuous
 62
     7
100
AcDbLine
 10
-68.4809408971936
 20
67.79294004327298
 30
0.0
 11
-68.5846087031503
 21
67.79294004327389
 31
0.0
  0
LINE
  5
18E
330
1F
100
AcDbEntity
  8
0
  6
Continuous
 62
     7
100
AcDbLine
 10
-71.5327095258527
 20
62.99294004327369
 30
0.0
 11
-71.5327095258527
 21
67.79294004327248
 31
0.0
  0
LINE
  5
18F
330
1F
100
AcDbEntity
  8
0
  6
Continuous
 62
     7
100
AcDbLine
 10
-54.34301256388569
 20
65.49294004327298
 30
0.0
 11
-53.5327095258527
 21
65.49294004327258
 31
0.0
  0
LINE
  5
190
330
1F
100
AcDbEntity
  8
0
  6
Continuous
 62
     7
100
AcDbLine
 10
-56.38270952585272
 20
65.49294004327278
 30
0.0
 11
-56.5209498350245
 21
65.49294004327268
 31
0.0
  0
LINE
  5
191
330
1F
100
AcDbEntity
  8
0
  6
Continuous
 62
     7
100
AcDbLine
 10
-56.30154372453892
 20
65.49294004327268
 30
0.0
 11
-56.38270952585272
 21
65.49294004327278
 31
0.0
  0
LINE
  5
192
330
1F
100
AcDbEntity
  8
0
  6
Continuous
 62
     7
100
AcDbLine
 10
-55.0327095258527
 20
65.49294004327288
 30
0.0
 11
-56.25220087308942
 21
65.49294004327288
 31
0.0
  0
LINE
  5
193
330
1F
100
AcDbEntity
  8
0
  6
Continuous
 62
     7
100
AcDbLine
 10
-54.81595393486832
 20
65.49294004327268
 30
0.0
 11
-55.0327095258527
 21
65.49294004327288
 31
0.0
  0
LINE
  5
194
330
1F
100
AcDbEntity
  8
0
  6
Continuous
 62
     7
100
AcDbLine
 10
-56.25220087308942
 20
65.49294004327288
 30
0.0
 11
-56.30154372453892
 21
65.49294004327268
 31
0.0
  0
LINE
  5
195
330
1F
100
AcDbEntity
  8
0
  6
Continuous
 62
     7
100
AcDbLine
 10
-54.5327095258527
 20
65.49294004327268
 30
0.0
 11
-54.66727663259771
 21
65.49294004327298
 31
0.0
  0
LINE
  5
196
330
1F
100
AcDbEntity
  8
0
  6
Continuous
 62
     7
100
AcDbLine
 10
-54.66727663259771
 20
65.49294004327298
 30
0.0
 11
-54.696565954479
 21
65.49294004327298
 31
0.0
  0
LINE
  5
197
330
1F
100
AcDbEntity
  8
0
  6
Continuous
 62
     7
100
AcDbLine
 10
-74.5327095258527
 20
67.79294004327258
 30
0.0
 11
-73.65415417398252
 21
67.79294004327258
 31
0.0
  0
LINE
  5
198
330
1F
100
AcDbEntity
  8
0
  6
Continuous
 62
     7
100
AcDbLine
 10
-74.5327095258527
 20
65.49294004327288
 30
0.0
 11
-74.5327095258527
 21
67.79294004327258
 31
0.0
  0
LINE
  5
199
330
1F
100
AcDbEntity
  8
0
  6
Continuous
 62
     7
100
AcDbLine
 10
-53.5327095258527
 20
62.99294004327389
 30
0.0
 11
-53.5327095258527
 21
65.49294004327258
 31
0.0
  0
LINE
  5
19A
330
1F
100
AcDbEntity
  8
0
  6
Continuous
 62
     7
100
AcDbLine
 10
-67.0327095258527
 20
67.79294004327369
 30
0.0
 11
-67.03270952585281
 21
62.99294004327369
 31
0.0
  0
LINE
  5
19B
330
1F
100
AcDbEntity
  8
0
  6
Continuous
 62
     7
100
AcDbLine
 10
-61.0327095258527
 20
62.99294004327369
 30
0.0
 11
-67.03270952585281
 21
62.99294004327369
 31
0.0
  0
LINE
  5
19C
330
1F
100
AcDbEntity
  8
0
  6
Continuous
 62
     7
100
AcDbLine
 10
-61.0327095258527
 20
62.99294004327369
 30
0.0
 11
-61.0327095258527
 21
65.49294004327258
 31
0.0
  0
LINE
  5
19D
330
1F
100
AcDbEntity
  8
0
  6
Continuous
 62
     7
100
AcDbLine
 10
-74.5327095258527
 20
62.99294004327369
 30
0.0
 11
-74.5327095258527
 21
65.49294004327288
 31
0.0
  0
LINE
  5
19E
330
1F
100
AcDbEntity
  8
0
  6
Continuous
 62
     7
100
AcDbLine
 10
-68.83270952585282
 20
62.99294004327369
 30
0.0
 11
-71.5327095258527
 21
62.99294004327369
 31
0.0
  0
LINE
  5
19F
330
1F
100
AcDbEntity
  8
0
  6
Continuous
 62
     7
100
AcDbLine
 10
-71.5327095258527
 20
62.99294004327369
 30
0.0
 11
-74.5327095258527
 21
62.99294004327369
 31
0.0
  0
LINE
  5
1A0
330
1F
100
AcDbEntity
  8
0
  6
Continuous
 62
     7
100
AcDbLine
 10
-67.03270952585281
 20
62.99294004327369
 30
0.0
 11
-68.83270952585282
 21
62.99294004327369
 31
0.0
  0
LINE
  5
1A1
330
1F
100
AcDbEntity
  8
0
  6
Continuous
 62
     7
100
AcDbLine
 10
-59.23270952585271
 20
62.99294004327369
 30
0.0
 11
-61.0327095258527
 21
62.99294004327369
 31
0.0
  0
LINE
  5
1A2
330
1F
100
AcDbEntity
  8
0
  6
Continuous
 62
     7
100
AcDbLine
 10
-59.23270952585271
 20
65.49294004327258
 30
0.0
 11
-59.23270952585271
 21
62.99294004327369
 31
0.0
  0
LINE
  5
1A3
330
1F
100
AcDbEntity
  8
0
  6
Continuous
 62
     7
100
AcDbLine
 10
-56.5327095258527
 20
62.99294004327369
 30
0.0
 11
-59.23270952585271
 21
62.99294004327369
 31
0.0
  0
LINE
  5
1A4
330
1F
100
AcDbEntity
  8
0
  6
Continuous
 62
     7
100
AcDbLine
 10
-56.5327095258527
 20
65.49294004327258
 30
0.0
 11
-56.5327095258527
 21
62.99294004327369
 31
0.0
  0
LINE
  5
1A5
330
1F
100
AcDbEntity
  8
0
  6
Continuous
 62
     7
100
AcDbLine
 10
-68.83270952585282
 20
67.79294004327248
 30
0.0
 11
-68.83270952585282
 21
62.99294004327369
 31
0.0
  0
LINE
  5
1A6
330
1F
100
AcDbEntity
  8
0
  6
Continuous
 62
     7
100
AcDbLine
 10
-56.5327095258527
 20
62.99294004327369
 30
0.0
 11
-53.5327095258527
 21
62.99294004327389
 31
0.0
  0
LINE
  5
1A7
330
1F
100
AcDbEntity
  8
0
  6
Continuous
 62
     7
100
AcDbLine
 10
-58.86128168020601
 20
65.49294004327258
 30
0.0
 11
-59.0806877906917
 21
65.49294004327258
 31
0.0
  0
LINE
  5
1A8
330
1F
100
AcDbEntity
  8
0
  6
Continuous
 62
     7
100
AcDbLine
 10
-58.72707460724242
 20
65.49294004327298
 30
0.0
 11
-58.86128168020601
 21
65.49294004327258
 31
0.0
  0
LINE
  5
1A9
330
1F
100
AcDbEntity
  8
0
  6
Continuous
 62
     7
100
AcDbLine
 10
-59.36113665059899
 20
65.49294004327298
 30
0.0
 11
-59.2655451620878
 21
65.49294004327258
 31
0.0
  0
LINE
  5
1AA
330
1F
100
AcDbEntity
  8
0
  6
Continuous
 62
     7
100
AcDbLine
 10
-59.2655451620878
 20
65.49294004327258
 30
0.0
 11
-59.23270952585271
 21
65.49294004327258
 31
0.0
  0
LINE
  5
1AB
330
1F
100
AcDbEntity
  8
0
  6
Continuous
 62
     7
100
AcDbLine
 10
-59.6440343912579
 20
65.49294004327258
 30
0.0
 11
-59.36113665059899
 21
65.49294004327298
 31
0.0
  0
LINE
  5
1AC
330
1F
100
AcDbEntity
  8
0
  6
Continuous
 62
     7
100
AcDbLine
 10
-60.6440343912579
 20
65.49294004327258
 30
0.0
 11
-59.6440343912579
 21
65.49294004327258
 31
0.0
  0
LINE
  5
1AD
330
1F
100
AcDbEntity
  8
0
  6
Continuous
 62
     7
100
AcDbLine
 10
-60.96529970663322
 20
65.49294004327298
 30
0.0
 11
-60.83270952585282
 21
65.49294004327258
 31
0.0
  0
LINE
  5
1AE
330
1F
100
AcDbEntity
  8
0
  6
Continuous
 62
     7
100
AcDbLine
 10
-60.76529970663331
 20
65.49294004327298
 30
0.0
 11
-60.6440343912579
 21
65.49294004327258
 31
0.0
  0
LINE
  5
1AF
330
1F
100
AcDbEntity
  8
0
  6
Continuous
 62
     7
100
AcDbLine
 10
-60.83270952585282
 20
65.49294004327258
 30
0.0
 11
-60.76529970663331
 21
65.49294004327298
 31
0.0
  0
LINE
  5
1B0
330
1F
100
AcDbEntity
  8
0
  6
Continuous
 62
     7
100
AcDbLine
 10
-61.0327095258527
 20
65.49294004327258
 30
0.0
 11
-60.96529970663322
 21
65.49294004327298
 31
0.0
  0
LINE
  5
1B1
330
1F
100
AcDbEntity
  8
0
  6
Continuous
 62
     7
100
AcDbLine
 10
-67.11447970978152
 20
67.79294004327278
 30
0.0
 11
-67.28773477902202
 21
67.79294004327278
 31
0.0
  0
LINE
  5
1B2
330
1F
100
AcDbEntity
  8
0
  6
Continuous
 62
     7
100
AcDbLine
 10
-67.28773477902202
 20
67.79294004327278
 30
0.0
 11
-67.2990076181671
 21
67.79294004327369
 31
0.0
  0
LINE
  5
1B3
330
1F
100
AcDbEntity
  8
0
  6
Continuous
 62
     7
100
AcDbLine
 10
-70.8959158440875
 20
67.79294004327369
 30
0.0
 11
-70.56451147431882
 21
67.79294004327399
 31
0.0
  0
LINE
  5
1B4
330
1F
100
AcDbEntity
  8
0
  6
Continuous
 62
     7
100
AcDbLine
 10
-71.17837093045462
 20
67.79294004327369
 30
0.0
 11
-70.8981052305886
 21
67.79294004327268
 31
0.0
  0
LINE
  5
1B5
330
1F
100
AcDbEntity
  8
0
  6
Continuous
 62
     7
100
AcDbLine
 10
-71.5327095258527
 20
67.79294004327248
 30
0.0
 11
-71.17837093045462
 21
67.79294004327369
 31
0.0
  0
LINE
  5
1B6
330
1F
100
AcDbEntity
  8
0
  6
Continuous
 62
     7
100
AcDbLine
 10
-70.56451147431882
 20
67.79294004327399
 30
0.0
 11
-70.5042046808285
 21
67.79294004327268
 31
0.0
  0
LINE
  5
1B7
330
1F
100
AcDbEntity
  8
0
  6
Continuous
 62
     7
100
AcDbLine
 10
-70.5042046808285
 20
67.79294004327268
 30
0.0
 11
-68.83270952585282
 21
67.79294004327248
 31
0.0
  0
LINE
  5
1B8
330
1F
100
AcDbEntity
  8
0
  6
Continuous
 62
     7
100
AcDbLine
 10
-68.5846087031503
 20
67.79294004327389
 30
0.0
 11
-68.7790040134792
 21
67.79294004327379
 31
0.0
  0
LINE
  5
1B9
330
1F
100
AcDbEntity
  8
0
  6
Continuous
 62
     7
100
AcDbLine
 10
-68.7790040134792
 20
67.79294004327379
 30
0.0
 11
-68.83270952585282
 21
67.79294004327248
 31
0.0
  0
LINE
  5
1BA
330
1F
100
AcDbEntity
  8
0
  6
Continuous
 62
     7
100
AcDbLine
 10
-67.11447970978152
 20
67.79294004327278
 30
0.0
 11
-67.0327095258527
 21
67.79294004327369
 31
0.0
  0
LINE
  5
1BB
330
1F
100
AcDbEntity
  8
0
  6
Continuous
 62
     7
100
AcDbLine
 10
-67.36518149689532
 20
67.79294004327369
 30
0.0
 11
-67.44611135885582
 21
67.79294004327258
 31
0.0
  0
LINE
  5
1BC
330
1F
100
AcDbEntity
  8
0
  6
Continuous
 62
     7
100
AcDbLine
 10
-67.57057749149682
 20
67.79294004327389
 30
0.0
 11
-67.8276822553931
 21
67.79294004327258
 31
0.0
  0
LINE
  5
1BD
330
1F
100
AcDbEntity
  8
0
  6
Continuous
 62
     7
100
AcDbLine
 10
-67.44611135885582
 20
67.79294004327258
 30
0.0
 11
-67.57057749149682
 21
67.79294004327389
 31
0.0
  0
LINE
  5
1BE
330
1F
100
AcDbEntity
  8
0
  6
Continuous
 62
     7
100
AcDbLine
 10
-70.8981052305886
 20
67.79294004327268
 30
0.0
 11
-70.8959158440875
 21
67.79294004327369
 31
0.0
  0
LINE
  5
1BF
330
1F
100
AcDbEntity
  8
0
  6
Continuous
 62
     7
100
AcDbLine
 10
-73.33270952585282
 20
67.79294004327268
 30
0.0
 11
-71.6020898887944
 21
67.79294004327268
 31
0.0
  0
LINE
  5
1C0
330
1F
100
AcDbEntity
  8
0
  6
Continuous
 62
     7
100
AcDbLine
 10
-73.65415417398252
 20
67.79294004327258
 30
0.0
 11
-73.5047860269794
 21
67.79294004327369
 31
0.0
  0
LINE
  5
1C1
330
1F
100
AcDbEntity
  8
0
  6
Continuous
 62
     7
100
AcDbLine
 10
-73.45341499207491
 20
67.79294004327369
 30
0.0
 11
-73.33270952585282
 21
67.79294004327268
 31
0.0
  0
LINE
  5
1C2
330
1F
100
AcDbEntity
  8
0
  6
Continuous
 62
     7
100
AcDbLine
 10
-73.5047860269794
 20
67.79294004327369
 30
0.0
 11
-73.45341499207491
 21
67.79294004327369
 31
0.0
  0
LINE
  5
1C3
330
1F
100
AcDbEntity
  8
0
  6
Continuous
 62
     7
100
AcDbLine
 10
-71.6020898887944
 20
67.79294004327268
 30
0.0
 11
-71.5327095258527
 21
67.79294004327248
 31
0.0
  0
LINE
  5
1C4
330
1F
100
AcDbEntity
  8
0
  6
Continuous
 62
     7
100
AcDbLine
 10
-74.5327095258527
 20
74.49294004327393
 30
0.0
 11
-74.5327095258527
 21
67.79294004327258
 31
0.0
  0
LINE
  5
1C5
330
1F
100
AcDbEntity
  8
0
  6
Continuous
 62
     7
100
AcDbLine
 10
-57.50090757738671
 20
65.49294004327288
 30
0.0
 11
-58.72707460724242
 21
65.49294004327298
 31
0.0
  0
LINE
  5
1C6
330
1F
100
AcDbEntity
  8
0
  6
Continuous
 62
     7
100
AcDbLine
 10
-57.26770952585279
 20
65.49294004327278
 30
0.0
 11
-57.43270952585282
 21
65.49294004327278
 31
0.0
  0
LINE
  5
1C7
330
1F
100
AcDbEntity
  8
0
  6
Continuous
 62
     7
100
AcDbLine
 10
-56.5327095258527
 20
65.49294004327258
 30
0.0
 11
-56.81788629803872
 21
65.49294004327298
 31
0.0
  0
LINE
  5
1C8
330
1F
100
AcDbEntity
  8
0
  6
Continuous
 62
     7
100
AcDbLine
 10
-56.95930765427592
 20
65.49294004327298
 30
0.0
 11
-57.03001833239462
 21
65.49294004327298
 31
0.0
  0
LINE
  5
1C9
330
1F
100
AcDbEntity
  8
0
  6
Continuous
 62
     7
100
AcDbLine
 10
-56.81788629803872
 20
65.49294004327298
 30
0.0
 11
-56.95930765427592
 21
65.49294004327298
 31
0.0
  0
LINE
  5
1CA
330
1F
100
AcDbEntity
  8
0
  6
Continuous
 62
     7
100
AcDbLine
 10
-57.07148405723031
 20
65.49294004327268
 30
0.0
 11
-57.17143968863191
 21
65.49294004327298
 31
0.0
  0
LINE
  5
1CB
330
1F
100
AcDbEntity
  8
0
  6
Continuous
 62
     7
100
AcDbLine
 10
-57.03001833239462
 20
65.49294004327298
 30
0.0
 11
-57.07148405723031
 21
65.49294004327268
 31
0.0
  0
LINE
  5
1CC
330
1F
100
AcDbEntity
  8
0
  6
Continuous
 62
     7
100
AcDbLine
 10
-57.17143968863191
 20
65.49294004327298
 30
0.0
 11
-57.26770952585279
 21
65.49294004327278
 31
0.0
  0
LINE
  5
1CD
330
1F
100
AcDbEntity
  8
0
  6
Continuous
 62
     7
100
AcDbLine
 10
-57.43270952585282
 20
65.49294004327278
 30
0.0
 11
-57.4896087878809
 21
65.49294004327268
 31
0.0
  0
LINE
  5
1CE
330
1F
100
AcDbEntity
  8
0
  6
Continuous
 62
     7
100
AcDbLine
 10
-59.1370292007686
 20
65.49294004327278
 30
0.0
 11
-59.23270952585271
 21
65.49294004327258
 31
0.0
  0
LINE
  5
1CF
330
1F
100
AcDbEntity
  8
0
  6
Continuous
 62
     7
100
AcDbLine
 10
-74.5327095258527
 20
77.49294004327379
 30
0.0
 11
-74.5327095258527
 21
74.49294004327393
 31
0.0
  0
LINE
  5
1D0
330
1F
100
AcDbEntity
  8
0
  6
Continuous
 62
     7
100
AcDbLine
 10
-54.34301256388569
 20
65.49294004327298
 30
0.0
 11
-54.42834798837642
 21
65.49294004327258
 31
0.0
  0
LINE
  5
1D1
330
1F
100
AcDbEntity
  8
0
  6
Continuous
 62
     7
100
AcDbLine
 10
-54.42834798837642
 20
65.49294004327258
 30
0.0
 11
-54.4552126182145
 21
65.49294004327258
 31
0.0
  0
LINE
  5
1D2
330
1F
100
AcDbEntity
  8
0
  6
Continuous
 62
     7
100
AcDbLine
 10
-54.4552126182145
 20
65.49294004327258
 30
0.0
 11
-54.5327095258527
 21
65.49294004327268
 31
0.0
  0
LINE
  5
1D3
330
1F
100
AcDbEntity
  8
0
  6
Continuous
 62
     7
100
AcDbLine
 10
-54.696565954479
 20
65.49294004327298
 30
0.0
 11
-54.73270952585271
 21
65.49294004327278
 31
0.0
  0
LINE
  5
1D4
330
1F
100
AcDbEntity
  8
0
  6
Continuous
 62
     7
100
AcDbLine
 10
-54.73270952585271
 20
65.49294004327278
 30
0.0
 11
-54.78908930503032
 21
65.49294004327258
 31
0.0
  0
LINE
  5
1D5
330
1F
100
AcDbEntity
  8
0
  6
Continuous
 62
     7
100
AcDbLine
 10
-54.78908930503032
 20
65.49294004327258
 30
0.0
 11
-54.81595393486832
 21
65.49294004327268
 31
0.0
  0
LINE
  5
1D6
330
1F
100
AcDbEntity
  8
0
  6
Continuous
 62
     7
100
AcDbLine
 10
-56.5209498350245
 20
65.49294004327268
 30
0.0
 11
-56.5327095258527
 21
65.49294004327258
 31
0.0
  0
LINE
  5
1D7
330
1F
100
AcDbEntity
  8
0
  6
Continuous
 62
     7
100
AcDbLine
 10
-53.5327095258527
 20
74.49294004327393
 30
0.0
 11
-53.5327095258527
 21
77.49294004327379
 31
0.0
  0
LINE
  5
1D8
330
1F
100
AcDbEntity
  8
0
  6
Continuous
 62
     7
100
AcDbLine
 10
-53.5327095258527
 20
65.49294004327258
 30
0.0
 11
-53.5327095258527
 21
74.49294004327393
 31
0.0
  0
LINE
  5
1D9
330
1F
100
AcDbEntity
  8
0
  6
Continuous
 62
     7
100
AcDbLine
 10
-24.48270952585269
 20
74.49294004327388
 30
0.0
 11
-27.68270952585271
 21
74.49294004327396
 31
0.0
  0
LINE
  5
1DA
330
1F
100
AcDbEntity
  8
0
  6
Continuous
 62
     7
100
AcDbLine
 10
-18.58270952585288
 20
67.79294004327258
 30
0.0
 11
-18.38270952585281
 21
67.79294004327369
 31
0.0
  0
LINE
  5
1DB
330
1F
100
AcDbEntity
  8
0
  6
Continuous
 62
     7
100
AcDbLine
 10
-20.29188041566149
 20
65.49294004327268
 30
0.0
 11
-20.29188041566149
 21
67.79294004327379
 31
0.0
  0
LINE
  5
1DC
330
1F
100
AcDbEntity
  8
0
  6
Continuous
 62
     7
100
AcDbLine
 10
-20.29188041566149
 20
67.79294004327379
 30
0.0
 11
-20.06181869158148
 21
67.79294004327379
 31
0.0
  0
LINE
  5
1DD
330
1F
100
AcDbEntity
  8
0
  6
Continuous
 62
     7
100
AcDbLine
 10
-19.88270952585281
 20
67.79294004327258
 30
0.0
 11
-19.79681411674249
 21
67.79294004327379
 31
0.0
  0
LINE
  5
1DE
330
1F
100
AcDbEntity
  8
0
  6
Continuous
 62
     7
100
AcDbLine
 10
-21.14476283580008
 20
65.49294004327268
 30
0.0
 11
-20.29188041566149
 21
65.49294004327268
 31
0.0
  0
LINE
  5
1DF
330
1F
100
AcDbEntity
  8
0
  6
Continuous
 62
     7
100
AcDbLine
 10
-21.58270952585288
 20
65.49294004327268
 30
0.0
 11
-21.14476283580008
 21
65.49294004327268
 31
0.0
  0
LINE
  5
1E0
330
1F
100
AcDbEntity
  8
0
  6
Continuous
 62
     7
100
AcDbLine
 10
-21.21059086572489
 20
67.79294004327379
 30
0.0
 11
-20.38270952585281
 21
67.79294004327258
 31
0.0
  0
LINE
  5
1E1
330
1F
100
AcDbEntity
  8
0
  6
Continuous
 62
     7
100
AcDbLine
 10
-21.57277613474809
 20
67.79294004327379
 30
0.0
 11
-21.21059086572489
 21
67.79294004327379
 31
0.0
  0
LINE
  5
1E2
330
1F
100
AcDbEntity
  8
0
  6
Continuous
 62
     7
100
AcDbLine
 10
-20.38270952585281
 20
67.79294004327258
 30
0.0
 11
-20.29188041566149
 21
67.79294004327379
 31
0.0
  0
LINE
  5
1E3
330
1F
100
AcDbEntity
  8
0
  6
Continuous
 62
     7
100
AcDbLine
 10
-21.58270952585288
 20
67.79294004327268
 30
0.0
 11
-21.57277613474809
 21
67.79294004327379
 31
0.0
  0
LINE
  5
1E4
330
1F
100
AcDbEntity
  8
0
  6
Continuous
 62
     7
100
AcDbLine
 10
-18.38270952585281
 20
67.79294004327369
 30
0.0
 11
-16.921492745024
 21
67.79294004327369
 31
0.0
  0
LINE
  5
1E5
330
1F
100
AcDbEntity
  8
0
  6
Continuous
 62
     7
100
AcDbLine
 10
-19.60095043907881
 20
67.79294004327258
 30
0.0
 11
-19.58270952585288
 21
67.79294004327258
 31
0.0
  0
LINE
  5
1E6
330
1F
100
AcDbEntity
  8
0
  6
Continuous
 62
     7
100
AcDbLine
 10
-18.6124101576515
 20
67.79294004327258
 30
0.0
 11
-18.58270952585288
 21
67.79294004327258
 31
0.0
  0
LINE
  5
1E7
330
1F
100
AcDbEntity
  8
0
  6
Continuous
 62
     7
100
AcDbLine
 10
-20.06181869158148
 20
67.79294004327379
 30
0.0
 11
-19.88270952585281
 21
67.79294004327258
 31
0.0
  0
LINE
  5
1E8
330
1F
100
AcDbEntity
  8
0
  6
Continuous
 62
     7
100
AcDbLine
 10
-19.51435903037531
 20
67.79294004327369
 30
0.0
 11
-18.6124101576515
 21
67.79294004327258
 31
0.0
  0
LINE
  5
1E9
330
1F
100
AcDbEntity
  8
0
  6
Continuous
 62
     7
100
AcDbLine
 10
-19.58270952585288
 20
67.79294004327258
 30
0.0
 11
-19.51435903037531
 21
67.79294004327369
 31
0.0
  0
LINE
  5
1EA
330
1F
100
AcDbEntity
  8
0
  6
Continuous
 62
     7
100
AcDbLine
 10
-19.79681411674249
 20
67.79294004327379
 30
0.0
 11
-19.60095043907881
 21
67.79294004327258
 31
0.0
  0
LINE
  5
1EB
330
1F
100
AcDbEntity
  8
0
  6
Continuous
 62
     7
100
AcDbLine
 10
-27.6827095258529
 20
65.49294004327278
 30
0.0
 11
-27.68270952585271
 21
74.49294004327396
 31
0.0
  0
LINE
  5
1EC
330
1F
100
AcDbEntity
  8
0
  6
Continuous
 62
     7
100
AcDbLine
 10
-27.6827095258529
 20
65.49294004327278
 30
0.0
 11
-24.482709525853
 21
65.49294004327278
 31
0.0
  0
LINE
  5
1ED
330
1F
100
AcDbEntity
  8
0
  6
Continuous
 62
     7
100
AcDbLine
 10
-24.48270952585269
 20
74.49294004327388
 30
0.0
 11
-24.482709525853
 21
65.49294004327278
 31
0.0
  0
LINE
  5
1EE
330
1F
100
AcDbEntity
  8
0
  6
Continuous
 62
     7
100
AcDbLine
 10
-27.68270952585299
 20
62.99294004327389
 30
0.0
 11
-27.6827095258529
 21
65.49294004327278
 31
0.0
  0
LINE
  5
1EF
330
1F
100
AcDbEntity
  8
0
  6
Continuous
 62
     7
100
AcDbLine
 10
-24.482709525853
 20
65.49294004327278
 30
0.0
 11
-24.482709525853
 21
62.99294004327389
 31
0.0
  0
LINE
  5
1F0
330
1F
100
AcDbEntity
  8
0
  6
Continuous
 62
     7
100
AcDbLine
 10
-27.68270952585299
 20
62.99294004327389
 30
0.0
 11
-24.482709525853
 21
62.99294004327389
 31
0.0
  0
LINE
  5
1F1
330
1F
100
AcDbEntity
  8
0
  6
Continuous
 62
     7
100
AcDbLine
 10
-33.0854007193111
 20
65.49294004327298
 30
0.0
 11
-31.3883444444633
 21
65.49294004327288
 31
0.0
  0
LINE
  5
1F2
330
1F
100
AcDbEntity
  8
0
  6
Continuous
 62
     7
100
AcDbLine
 10
-30.96408037575138
 20
65.49294004327288
 30
0.0
 11
-30.58270952585288
 21
65.49294004327288
 31
0.0
  0
LINE
  5
1F3
330
1F
100
AcDbEntity
  8
0
  6
Continuous
 62
     7
100
AcDbLine
 10
-31.3883444444633
 20
65.49294004327288
 30
0.0
 11
-30.96408037575138
 21
65.49294004327288
 31
0.0
  0
LINE
  5
1F4
330
1F
100
AcDbEntity
  8
0
  6
Continuous
 62
     7
100
AcDbLine
 10
-33.297532753667
 20
65.49294004327298
 30
0.0
 11
-33.58270952585288
 21
65.49294004327298
 31
0.0
  0
LINE
  5
1F5
330
1F
100
AcDbEntity
  8
0
  6
Continuous
 62
     7
100
AcDbLine
 10
-33.1561113974298
 20
65.49294004327298
 30
0.0
 11
-33.297532753667
 21
65.49294004327298
 31
0.0
  0
LINE
  5
1F6
330
1F
100
AcDbEntity
  8
0
  6
Continuous
 62
     7
100
AcDbLine
 10
-33.0854007193111
 20
65.49294004327298
 30
0.0
 11
-33.1561113974298
 21
65.49294004327298
 31
0.0
  0
LINE
  5
1F7
330
1F
100
AcDbEntity
  8
0
  6
Continuous
 62
     7
100
AcDbLine
 10
-33.6510861442603
 20
65.49294004327298
 30
0.0
 11
-35.41885309722669
 21
65.49294004327308
 31
0.0
  0
LINE
  5
1F8
330
1F
100
AcDbEntity
  8
0
  6
Continuous
 62
     7
100
AcDbLine
 10
-33.58270952585288
 20
65.49294004327298
 30
0.0
 11
-33.6510861442603
 21
65.49294004327298
 31
0.0
  0
LINE
  5
1F9
330
1F
100
AcDbEntity
  8
0
  6
Continuous
 62
     7
100
AcDbLine
 10
-35.41885309722669
 20
65.49294004327308
 30
0.0
 11
-35.44814241910798
 21
65.49294004327298
 31
0.0
  0
LINE
  5
1FA
330
1F
100
AcDbEntity
  8
0
  6
Continuous
 62
     7
100
AcDbLine
 10
-35.44814241910798
 20
65.49294004327298
 30
0.0
 11
-36.58270952585288
 21
65.49294004327308
 31
0.0
  0
LINE
  5
1FB
330
1F
100
AcDbEntity
  8
0
  6
Continuous
 62
     7
100
AcDbLine
 10
-18.58270952585288
 20
62.99294004327369
 30
0.0
 11
-18.58270952585288
 21
67.79294004327258
 31
0.0
  0
LINE
  5
1FC
330
1F
100
AcDbEntity
  8
0
  6
Continuous
 62
     7
100
AcDbLine
 10
-16.921492745024
 20
67.79294004327369
 30
0.0
 11
-16.76472317610901
 21
67.79294004327258
 31
0.0
  0
LINE
  5
1FD
330
1F
100
AcDbEntity
  8
0
  6
Continuous
 62
     7
100
AcDbLine
 10
-16.76472317610901
 20
67.79294004327258
 30
0.0
 11
-15.5827095258529
 21
67.79294004327248
 31
0.0
  0
LINE
  5
1FE
330
1F
100
AcDbEntity
  8
0
  6
Continuous
 62
     7
100
AcDbLine
 10
-15.5827095258529
 20
65.49294004327258
 30
0.0
 11
-15.5827095258529
 21
67.79294004327248
 31
0.0
  0
LINE
  5
1FF
330
1F
100
AcDbEntity
  8
0
  6
Continuous
 62
     7
100
AcDbLine
 10
-33.58270952585288
 20
65.49294004327298
 30
0.0
 11
-33.58270952585288
 21
62.99294004327409
 31
0.0
  0
LINE
  5
200
330
1F
100
AcDbEntity
  8
0
  6
Continuous
 62
     7
100
AcDbLine
 10
-18.58270952585288
 20
62.99294004327369
 30
0.0
 11
-24.482709525853
 21
62.99294004327389
 31
0.0
  0
LINE
  5
201
330
1F
100
AcDbEntity
  8
0
  6
Continuous
 62
     7
100
AcDbLine
 10
-27.68270952585299
 20
62.99294004327389
 30
0.0
 11
-33.58270952585288
 21
62.99294004327409
 31
0.0
  0
LINE
  5
202
330
1F
100
AcDbEntity
  8
0
  6
Continuous
 62
     7
100
AcDbLine
 10
-15.5827095258529
 20
62.99294004327369
 30
0.0
 11
-18.58270952585288
 21
62.99294004327369
 31
0.0
  0
LINE
  5
203
330
1F
100
AcDbEntity
  8
0
  6
Continuous
 62
     7
100
AcDbLine
 10
-15.5827095258529
 20
62.99294004327369
 30
0.0
 11
-15.5827095258529
 21
65.49294004327258
 31
0.0
  0
LINE
  5
204
330
1F
100
AcDbEntity
  8
0
  6
Continuous
 62
     7
100
AcDbLine
 10
-36.58270952585288
 20
65.49294004327308
 30
0.0
 11
-36.58270952585288
 21
62.99294004327419
 31
0.0
  0
LINE
  5
205
330
1F
100
AcDbEntity
  8
0
  6
Continuous
 62
     7
100
AcDbLine
 10
-36.58270952585288
 20
62.99294004327419
 30
0.0
 11
-33.58270952585288
 21
62.99294004327409
 31
0.0
  0
LINE
  5
206
330
1F
100
AcDbEntity
  8
0
  6
Continuous
 62
     7
100
AcDbLine
 10
-30.5827095258526
 20
77.79294004327292
 30
0.0
 11
-27.5827095258526
 21
77.79294004327284
 31
0.0
  0
LINE
  5
207
330
1F
100
AcDbEntity
  8
0
  6
Continuous
 62
     7
100
AcDbLine
 10
-27.58270952585248
 20
82.49294004327282
 30
0.0
 11
-27.5827095258526
 21
77.79294004327284
 31
0.0
  0
LINE
  5
208
330
1F
100
AcDbEntity
  8
0
  6
Continuous
 62
     7
100
AcDbLine
 10
-26.9827095258522
 20
93.79294004327281
 30
0.0
 11
-31.58270952585228
 21
93.79294004327292
 31
0.0
  0
LINE
  5
209
330
1F
100
AcDbEntity
  8
0
  6
Continuous
 62
     7
100
AcDbLine
 10
-26.9827095258522
 20
92.79294004327281
 30
0.0
 11
-26.9827095258522
 21
92.29294004327281
 31
0.0
  0
LINE
  5
20A
330
1F
100
AcDbEntity
  8
0
  6
Continuous
 62
     7
100
AcDbLine
 10
-26.9827095258522
 20
92.79294004327281
 30
0.0
 11
-26.9827095258522
 21
93.79294004327281
 31
0.0
  0
LINE
  5
20B
330
1F
100
AcDbEntity
  8
0
  6
Continuous
 62
     7
100
AcDbLine
 10
-32.08270952585228
 20
93.79294004327295
 30
0.0
 11
-31.58270952585228
 21
93.79294004327292
 31
0.0
  0
LINE
  5
20C
330
1F
100
AcDbEntity
  8
0
  6
Continuous
 62
     7
100
AcDbLine
 10
-18.58270952585288
 20
67.79294004327258
 30
0.0
 11
-18.38270952585281
 21
67.79294004327369
 31
0.0
  0
LINE
  5
20D
330
1F
100
AcDbEntity
  8
0
  6
Continuous
 62
     7
100
AcDbLine
 10
-20.29188041566149
 20
67.79294004327379
 30
0.0
 11
-20.06181869158148
 21
67.79294004327379
 31
0.0
  0
LINE
  5
20E
330
1F
100
AcDbEntity
  8
0
  6
Continuous
 62
     7
100
AcDbLine
 10
-19.88270952585281
 20
67.79294004327258
 30
0.0
 11
-19.79681411674249
 21
67.79294004327379
 31
0.0
  0
LINE
  5
20F
330
1F
100
AcDbEntity
  8
0
  6
Continuous
 62
     7
100
AcDbLine
 10
-21.58270952585288
 20
65.49294004327268
 30
0.0
 11
-20.29188041566149
 21
65.49294004327268
 31
0.0
  0
LINE
  5
210
330
1F
100
AcDbEntity
  8
0
  6
Continuous
 62
     7
100
AcDbLine
 10
-21.21059086572489
 20
67.79294004327379
 30
0.0
 11
-20.38270952585281
 21
67.79294004327258
 31
0.0
  0
LINE
  5
211
330
1F
100
AcDbEntity
  8
0
  6
Continuous
 62
     7
100
AcDbLine
 10
-21.57277613474809
 20
67.79294004327379
 30
0.0
 11
-21.21059086572489
 21
67.79294004327379
 31
0.0
  0
LINE
  5
212
330
1F
100
AcDbEntity
  8
0
  6
Continuous
 62
     7
100
AcDbLine
 10
-20.38270952585281
 20
67.79294004327258
 30
0.0
 11
-20.29188041566149
 21
67.79294004327379
 31
0.0
  0
LINE
  5
213
330
1F
100
AcDbEntity
  8
0
  6
Continuous
 62
     7
100
AcDbLine
 10
-21.58270952585288
 20
67.79294004327268
 30
0.0
 11
-21.57277613474809
 21
67.79294004327379
 31
0.0
  0
LINE
  5
214
330
1F
100
AcDbEntity
  8
0
  6
Continuous
 62
     7
100
AcDbLine
 10
-18.38270952585281
 20
67.79294004327369
 30
0.0
 11
-16.921492745024
 21
67.79294004327369
 31
0.0
  0
LINE
  5
215
330
1F
100
AcDbEntity
  8
0
  6
Continuous
 62
     7
100
AcDbLine
 10
-19.60095043907881
 20
67.79294004327258
 30
0.0
 11
-19.58270952585288
 21
67.79294004327258
 31
0.0
  0
LINE
  5
216
330
1F
100
AcDbEntity
  8
0
  6
Continuous
 62
     7
100
AcDbLine
 10
-18.6124101576515
 20
67.79294004327258
 30
0.0
 11
-18.58270952585288
 21
67.79294004327258
 31
0.0
  0
LINE
  5
217
330
1F
100
AcDbEntity
  8
0
  6
Continuous
 62
     7
100
AcDbLine
 10
-20.06181869158148
 20
67.79294004327379
 30
0.0
 11
-19.88270952585281
 21
67.79294004327258
 31
0.0
  0
LINE
  5
218
330
1F
100
AcDbEntity
  8
0
  6
Continuous
 62
     7
100
AcDbLine
 10
-19.51435903037531
 20
67.79294004327369
 30
0.0
 11
-18.6124101576515
 21
67.79294004327258
 31
0.0
  0
LINE
  5
219
330
1F
100
AcDbEntity
  8
0
  6
Continuous
 62
     7
100
AcDbLine
 10
-19.58270952585288
 20
67.79294004327258
 30
0.0
 11
-19.51435903037531
 21
67.79294004327369
 31
0.0
  0
LINE
  5
21A
330
1F
100
AcDbEntity
  8
0
  6
Continuous
 62
     7
100
AcDbLine
 10
-19.79681411674249
 20
67.79294004327379
 30
0.0
 11
-19.60095043907881
 21
67.79294004327258
 31
0.0
  0
LINE
  5
21B
330
1F
100
AcDbEntity
  8
0
  6
Continuous
 62
     7
100
AcDbLine
 10
-18.5827095258526
 20
82.49294004327263
 30
0.0
 11
-15.5827095258526
 21
82.49294004327254
 31
0.0
  0
LINE
  5
21C
330
1F
100
AcDbEntity
  8
0
  6
Continuous
 62
     7
100
AcDbLine
 10
-15.5827095258526
 20
82.49294004327254
 30
0.0
 11
-15.5827095258529
 21
67.79294004327248
 31
0.0
  0
LINE
  5
21D
330
1F
100
AcDbEntity
  8
0
  6
Continuous
 62
     7
100
AcDbLine
 10
-19.0827095258526
 20
82.49294004327263
 30
0.0
 11
-19.08270952585228
 21
92.79294004327264
 31
0.0
  0
LINE
  5
21E
330
1F
100
AcDbEntity
  8
0
  6
Continuous
 62
     7
100
AcDbLine
 10
-20.08270952585228
 20
93.79294004327267
 30
0.0
 11
-20.58270952585228
 21
93.79294004327267
 31
0.0
  0
LINE
  5
21F
330
1F
100
AcDbEntity
  8
0
  6
Continuous
 62
     7
100
AcDbLine
 10
-27.6827095258529
 20
65.49294004327278
 30
0.0
 11
-27.58270952585288
 21
65.49294004327278
 31
0.0
  0
LINE
  5
220
330
1F
100
AcDbEntity
  8
0
  6
Continuous
 62
     7
100
AcDbLine
 10
-27.58270952585288
 20
65.49294004327278
 30
0.0
 11
-24.58270952585288
 21
65.49294004327278
 31
0.0
  0
LINE
  5
221
330
1F
100
AcDbEntity
  8
0
  6
Continuous
 62
     7
100
AcDbLine
 10
-24.58270952585288
 20
65.49294004327278
 30
0.0
 11
-24.482709525853
 21
65.49294004327278
 31
0.0
  0
LINE
  5
222
330
1F
100
AcDbEntity
  8
0
  6
Continuous
 62
     7
100
AcDbLine
 10
-24.5827095258526
 20
77.79294004327278
 30
0.0
 11
-21.5827095258526
 21
77.7929400432727
 31
0.0
  0
LINE
  5
223
330
1F
100
AcDbEntity
  8
0
  6
Continuous
 62
     7
100
AcDbLine
 10
-21.58270952585288
 20
67.79294004327268
 30
0.0
 11
-21.58270952585288
 21
65.49294004327268
 31
0.0
  0
LINE
  5
224
330
1F
100
AcDbEntity
  8
0
  6
Continuous
 62
     7
100
AcDbLine
 10
-32.94397936307378
 20
65.49294004327298
 30
0.0
 11
-30.75428240110678
 21
65.49294004327288
 31
0.0
  0
LINE
  5
225
330
1F
100
AcDbEntity
  8
0
  6
Continuous
 62
     7
100
AcDbLine
 10
-30.75428240110678
 20
65.49294004327288
 30
0.0
 11
-30.58270952585288
 21
65.49294004327288
 31
0.0
  0
LINE
  5
226
330
1F
100
AcDbEntity
  8
0
  6
Continuous
 62
     7
100
AcDbLine
 10
-33.0854007193111
 20
65.49294004327298
 30
0.0
 11
-32.94397936307378
 21
65.49294004327298
 31
0.0
  0
LINE
  5
227
330
1F
100
AcDbEntity
  8
0
  6
Continuous
 62
     7
100
AcDbLine
 10
-33.0854007193111
 20
65.49294004327298
 30
0.0
 11
-33.58270952585288
 21
65.49294004327298
 31
0.0
  0
LINE
  5
228
330
1F
100
AcDbEntity
  8
0
  6
Continuous
 62
     7
100
AcDbLine
 10
-33.58270952585288
 20
65.49294004327298
 30
0.0
 11
-34.2412881696156
 21
65.49294004327298
 31
0.0
  0
LINE
  5
229
330
1F
100
AcDbEntity
  8
0
  6
Continuous
 62
     7
100
AcDbLine
 10
-34.2412881696156
 20
65.49294004327298
 30
0.0
 11
-34.58270952585288
 21
65.49294004327298
 31
0.0
  0
LINE
  5
22A
330
1F
100
AcDbEntity
  8
0
  6
Continuous
 62
     7
100
AcDbLine
 10
-35.41885309722669
 20
65.49294004327308
 30
0.0
 11
-35.44814241910798
 21
65.49294004327298
 31
0.0
  0
LINE
  5
22B
330
1F
100
AcDbEntity
  8
0
  6
Continuous
 62
     7
100
AcDbLine
 10
-34.58270952585288
 20
65.49294004327298
 30
0.0
 11
-35.41885309722669
 21
65.49294004327308
 31
0.0
  0
LINE
  5
22C
330
1F
100
AcDbEntity
  8
0
  6
Continuous
 62
     7
100
AcDbLine
 10
-35.80169580970129
 20
65.49294004327298
 30
0.0
 11
-36.58270952585288
 21
65.49294004327308
 31
0.0
  0
LINE
  5
22D
330
1F
100
AcDbEntity
  8
0
  6
Continuous
 62
     7
100
AcDbLine
 10
-33.58270952585259
 20
82.49294004327297
 30
0.0
 11
-36.58270952585259
 21
82.49294004327305
 31
0.0
  0
LINE
  5
22E
330
1F
100
AcDbEntity
  8
0
  6
Continuous
 62
     7
100
AcDbLine
 10
-36.58270952585288
 20
65.49294004327308
 30
0.0
 11
-36.58270952585259
 21
82.49294004327305
 31
0.0
  0
LINE
  5
22F
330
1F
100
AcDbEntity
  8
0
  6
Continuous
 62
     7
100
AcDbLine
 10
-21.5827095258526
 20
77.7929400432727
 30
0.0
 11
-21.58270952585288
 21
67.79294004327268
 31
0.0
  0
LINE
  5
230
330
1F
100
AcDbEntity
  8
0
  6
Continuous
 62
     7
100
AcDbLine
 10
-18.5827095258526
 20
82.49294004327263
 30
0.0
 11
-18.58270952585288
 21
67.79294004327258
 31
0.0
  0
LINE
  5
231
330
1F
100
AcDbEntity
  8
0
  6
Continuous
 62
     7
100
AcDbLine
 10
-18.58270952585288
 20
65.49294004327258
 30
0.0
 11
-18.58270952585288
 21
67.79294004327258
 31
0.0
  0
LINE
  5
232
330
1F
100
AcDbEntity
  8
0
  6
Continuous
 62
     7
100
AcDbLine
 10
-30.58270952585288
 20
65.49294004327288
 30
0.0
 11
-30.5827095258526
 21
77.79294004327292
 31
0.0
  0
LINE
  5
233
330
1F
100
AcDbEntity
  8
0
  6
Continuous
 62
     7
100
AcDbLine
 10
-33.58270952585288
 20
65.49294004327298
 30
0.0
 11
-33.58270952585259
 21
82.49294004327297
 31
0.0
  0
LINE
  5
234
330
1F
100
AcDbEntity
  8
0
  6
Continuous
 62
     7
100
AcDbLine
 10
-33.08270952585228
 20
92.79294004327298
 30
0.0
 11
-33.08270952585259
 21
82.49294004327297
 31
0.0
  0
LINE
  5
235
330
1F
100
AcDbEntity
  8
0
  6
Continuous
 62
     7
100
AcDbLine
 10
-24.5827095258526
 20
77.79294004327278
 30
0.0
 11
-24.58270952585248
 21
82.49294004327277
 31
0.0
  0
LINE
  5
236
330
1F
100
AcDbEntity
  8
0
  6
Continuous
 62
     7
100
AcDbLine
 10
-25.18270952585231
 20
92.29294004327278
 30
0.0
 11
-25.18270952585231
 21
92.79294004327278
 31
0.0
  0
LINE
  5
237
330
1F
100
AcDbEntity
  8
0
  6
Continuous
 62
     7
100
AcDbLine
 10
-25.18270952585231
 20
92.79294004327278
 30
0.0
 11
-25.18270952585231
 21
93.79294004327278
 31
0.0
  0
LINE
  5
238
330
1F
100
AcDbEntity
  8
0
  6
Continuous
 62
     7
100
AcDbLine
 10
-25.18270952585231
 20
92.29294004327278
 30
0.0
 11
-26.9827095258522
 21
92.29294004327281
 31
0.0
  0
LINE
  5
239
330
1F
100
AcDbEntity
  8
0
  6
Continuous
 62
     7
100
AcDbLine
 10
-24.58270952585248
 20
82.49294004327277
 30
0.0
 11
-27.58270952585248
 21
82.49294004327282
 31
0.0
  0
LINE
  5
23A
330
1F
100
AcDbEntity
  8
0
  6
Continuous
 62
     7
100
AcDbLine
 10
-20.58270952585228
 20
93.79294004327267
 30
0.0
 11
-25.18270952585231
 21
93.79294004327278
 31
0.0
  0
LINE
  5
23B
330
1F
100
AcDbEntity
  8
0
  6
Continuous
 62
     7
100
AcDbLine
 10
-35.44814241910798
 20
65.49294004327298
 30
0.0
 11
-35.77240648781999
 21
65.49294004327298
 31
0.0
  0
LINE
  5
23C
330
1F
100
AcDbEntity
  8
0
  6
Continuous
 62
     7
100
AcDbLine
 10
-35.77240648781999
 20
65.49294004327298
 30
0.0
 11
-35.80169580970129
 21
65.49294004327298
 31
0.0
  0
LINE
  5
23D
330
1F
100
AcDbEntity
  8
0
  6
Continuous
 62
     7
100
AcDbLine
 10
-16.921492745024
 20
67.79294004327369
 30
0.0
 11
-16.76472317610901
 21
67.79294004327258
 31
0.0
  0
LINE
  5
23E
330
1F
100
AcDbEntity
  8
0
  6
Continuous
 62
     7
100
AcDbLine
 10
-16.76472317610901
 20
67.79294004327258
 30
0.0
 11
-16.73903765865679
 21
67.79294004327258
 31
0.0
  0
LINE
  5
23F
330
1F
100
AcDbEntity
  8
0
  6
Continuous
 62
     7
100
AcDbLine
 10
-16.73903765865679
 20
67.79294004327258
 30
0.0
 11
-15.5827095258529
 21
67.79294004327248
 31
0.0
  0
LINE
  5
240
330
1F
100
AcDbEntity
  8
0
  6
Continuous
 62
     7
100
AcDbLine
 10
-15.5827095258529
 20
65.49294004327258
 30
0.0
 11
-15.5827095258529
 21
67.79294004327248
 31
0.0
  0
LINE
  5
241
330
1F
100
AcDbEntity
  8
1
  6
Continuous
 62
     7
100
AcDbLine
 10
-51.33501906006414
 20
4.40253384026496
 30
0.0
 11
-50.33451063490108
 21
4.40253384026496
 31
0.0
  0
LINE
  5
242
330
1F
100
AcDbEntity
  8
1
  6
Continuous
 62
     7
100
AcDbLine
 10
-51.33501906006414
 20
5.33809610980424
 30
0.0
 11
-51.33501906006414
 21
4.40253384026496
 31
0.0
  0
LINE
  5
243
330
1F
100
AcDbEntity
  8
1
  6
Continuous
 62
     7
100
AcDbLine
 10
-51.62788569692902
 20
3.52431620555463
 30
0.0
 11
-51.03708474266933
 21
3.52431620555463
 31
0.0
  0
LINE
  5
244
330
1F
100
AcDbEntity
  8
1
  6
Continuous
 62
     7
100
AcDbLine
 10
-51.97917275081319
 20
3.96342502290977
 30
0.0
 11
-50.68579768878523
 21
3.96342502290977
 31
0.0
  0
LINE
  5
245
330
1F
100
AcDbEntity
  8
1
  6
Continuous
 62
     7
100
AcDbLine
 10
-52.33045980469726
 20
4.40253384026496
 30
0.0
 11
-51.33501906006414
 21
4.40253384026496
 31
0.0
  0
LINE
  5
246
330
1F
100
AcDbEntity
  8
1
  6
Continuous
 62
     7
100
AcDbLine
 10
-62.6577095258527
 20
137.7729400432742
 30
0.0
 11
-63.2827095258527
 21
136.4729400432742
 31
0.0
  0
LINE
  5
247
330
1F
100
AcDbEntity
  8
1
  6
Continuous
 62
     7
100
AcDbLine
 10
-65.55965560951542
 20
136.4729400432742
 30
0.0
 11
-62.50576344219012
 21
136.4729400432742
 31
0.0
  0
LINE
  5
248
330
1F
100
AcDbEntity
  8
1
  6
Continuous
 62
     7
100
AcDbLine
 10
-62.44484156020882
 20
136.5608080089182
 30
0.0
 11
-61.2327095258528
 21
137.7729400432742
 31
0.0
  0
LINE
  5
249
330
1F
100
AcDbEntity
  8
1
  6
Continuous
 62
     7
100
AcDbLine
 10
-66.83270952585282
 20
137.7729400432742
 30
0.0
 11
-61.2327095258528
 21
137.7729400432742
 31
0.0
  0
LINE
  5
24A
330
1F
100
AcDbEntity
  8
1
  6
Continuous
 62
     7
100
AcDbLine
 10
-61.2327095258528
 20
137.7729400432742
 30
0.0
 11
-61.2327095258528
 21
138.1229400432742
 31
0.0
  0
LINE
  5
24B
330
1F
100
AcDbEntity
  8
1
  6
Continuous
 62
     7
100
AcDbLine
 10
-64.5102420144368
 20
137.7729400432742
 30
0.0
 11
-64.2931817923532
 21
136.4729400432742
 31
0.0
  0
LINE
  5
24C
330
1F
100
AcDbEntity
  8
1
  6
Continuous
 62
     7
100
AcDbLine
 10
-66.83270952585282
 20
138.1229400432742
 30
0.0
 11
-66.83270952585282
 21
137.7729400432742
 31
0.0
  0
LINE
  5
24D
330
1F
100
AcDbEntity
  8
1
  6
Continuous
 62
     7
100
AcDbLine
 10
-62.53270952585281
 20
136.3486759745622
 30
0.0
 11
-62.53270952585281
 21
135.3729400432739
 31
0.0
  0
LINE
  5
24E
330
1F
100
AcDbEntity
  8
1
  6
Continuous
 62
     7
100
AcDbLine
 10
-65.53270952585281
 20
136.3486759745622
 30
0.0
 11
-65.53270952585281
 21
135.3729400432739
 31
0.0
  0
LINE
  5
24F
330
1F
100
AcDbEntity
  8
1
  6
Continuous
 62
     2
100
AcDbLine
 10
-62.78270952585281
 20
135.9986759745622
 30
0.0
 11
-65.28270952585281
 21
135.9986759745622
 31
0.0
  0
LINE
  5
250
330
1F
100
AcDbEntity
  8
1
  6
Continuous
 62
     2
100
AcDbLine
 10
-62.78270952585281
 20
135.9986759745622
 30
0.0
 11
-62.78270952585281
 21
135.3729400432739
 31
0.0
  0
LINE
  5
251
330
1F
100
AcDbEntity
  8
1
  6
Continuous
 62
     2
100
AcDbLine
 10
-65.28270952585281
 20
135.9986759745622
 30
0.0
 11
-65.28270952585281
 21
135.3729400432739
 31
0.0
  0
LINE
  5
252
330
1F
100
AcDbEntity
  8
1
  6
Continuous
 62
     7
100
AcDbLine
 10
-66.83270952585282
 20
137.7729400432742
 30
0.0
 11
-65.6205774914968
 21
136.5608080089182
 31
0.0
  0
LINE
  5
253
330
1F
100
AcDbEntity
  8
1
  6
Continuous
 62
     2
100
AcDbLine
 10
-65.28270952585281
 20
135.9986759745622
 30
0.0
 11
-65.53270952585281
 21
136.2486759745622
 31
0.0
  0
LINE
  5
254
330
1F
100
AcDbEntity
  8
1
  6
Continuous
 62
     7
100
AcDbLine
 10
-66.13933174443001
 20
137.7729400432742
 30
0.0
 11
-65.18177619053121
 21
136.4729400432742
 31
0.0
  0
LINE
  5
255
330
1F
100
AcDbEntity
  8
1
  6
Continuous
 62
     7
100
AcDbLine
 10
-65.4077095258527
 20
137.7729400432742
 30
0.0
 11
-64.7827095258527
 21
136.4729400432742
 31
0.0
  0
LINE
  5
256
330
1F
100
AcDbEntity
  8
1
  6
Continuous
 62
     7
100
AcDbLine
 10
-63.55517703726862
 20
137.7729400432742
 30
0.0
 11
-63.77223725935231
 21
136.4729400432742
 31
0.0
  0
LINE
  5
257
330
1F
100
AcDbEntity
  8
1
  6
Continuous
 62
     7
100
AcDbLine
 10
-61.92608730727561
 20
137.7729400432742
 30
0.0
 11
-62.8836428611743
 21
136.4729400432742
 31
0.0
  0
LINE
  5
258
330
1F
100
AcDbEntity
  8
1
  6
Continuous
 62
     7
100
AcDbLine
 10
-61.44855481869151
 20
137.7729400432742
 30
0.0
 11
-62.62317059467399
 21
136.4729400432742
 31
0.0
  0
LINE
  5
259
330
1F
100
AcDbEntity
  8
1
  6
Continuous
 62
     7
100
AcDbLine
 10
-66.616864233014
 20
137.7729400432742
 30
0.0
 11
-65.4422484570316
 21
136.4729400432742
 31
0.0
  0
LINE
  5
25A
330
1F
100
AcDbEntity
  8
1
  6
Continuous
 62
     2
100
AcDbLine
 10
-62.53270952585281
 20
136.2486759745622
 30
0.0
 11
-62.78270952585281
 21
135.9986759745622
 31
0.0
  0
LINE
  5
25B
330
1F
100
AcDbEntity
  8
1
  6
Continuous
 62
     7
100
AcDbLine
 10
-66.2394155390845
 20
138.4199739908995
 30
0.0
 11
-66.2394155390845
 21
138.1229400432742
 31
0.0
  0
LINE
  5
25C
330
1F
100
AcDbEntity
  8
1
  6
Continuous
 62
     7
100
AcDbLine
 10
-66.2394155390845
 20
138.1229400432742
 30
0.0
 11
-65.67373011413521
 21
138.1229400432742
 31
0.0
  0
LINE
  5
25D
330
1F
100
AcDbEntity
  8
1
  6
Continuous
 62
     7
100
AcDbLine
 10
-65.67373011413521
 20
138.1229400432742
 30
0.0
 11
-65.67373011413521
 21
138.6271786103916
 31
0.0
  0
LINE
  5
25E
330
1F
100
AcDbEntity
  8
1
  6
Continuous
 62
     7
100
AcDbLine
 10
-14.63270952585225
 20
75.28623403004036
 30
0.0
 11
-14.335675578227
 21
75.28623403004036
 31
0.0
  0
LINE
  5
25F
330
1F
100
AcDbEntity
  8
1
  6
Continuous
 62
     7
100
AcDbLine
 10
-14.63270952585225
 20
75.85191945498963
 30
0.0
 11
-14.63270952585225
 21
75.28623403004036
 31
0.0
  0
LINE
  5
260
330
1F
100
AcDbEntity
  8
1
  6
Continuous
 62
     7
100
AcDbLine
 10
-14.12847095873488
 20
75.85191945498963
 30
0.0
 11
-14.63270952585225
 21
75.85191945498963
 31
0.0
  0
LINE
  5
261
330
1F
100
AcDbEntity
  8
1
  6
Continuous
 62
     7
100
AcDbLine
 10
-61.82469005823459
 20
27.02294004327361
 30
0.0
 11
-61.82469005823459
 21
26.72646923362297
 31
0.0
  0
LINE
  5
262
330
1F
100
AcDbEntity
  8
1
  6
Continuous
 62
     7
100
AcDbLine
 10
-62.3903754831838
 20
27.02294004327361
 30
0.0
 11
-61.82469005823459
 21
27.02294004327361
 31
0.0
  0
LINE
  5
263
330
1F
100
AcDbEntity
  8
1
  6
Continuous
 62
     7
100
AcDbLine
 10
-62.3903754831838
 20
26.51910408770833
 30
0.0
 11
-62.3903754831838
 21
27.02294004327361
 31
0.0
  0
LINE
  5
264
330
1F
100
AcDbEntity
  8
1
  6
Continuous
 62
     7
100
AcDbLine
 10
-14.98270952585227
 20
80.29294004327207
 30
0.0
 11
-14.98270952585227
 21
74.6929400432721
 31
0.0
  0
LINE
  5
265
330
1F
100
AcDbEntity
  8
1
  6
Continuous
 62
     7
100
AcDbLine
 10
-14.98270952585227
 20
74.6929400432721
 30
0.0
 11
-14.63270952585224
 21
74.6929400432721
 31
0.0
  0
LINE
  5
266
330
1F
100
AcDbEntity
  8
1
  6
Continuous
 62
     7
100
AcDbLine
 10
-14.63270952585224
 20
80.29294004327207
 30
0.0
 11
-14.98270952585227
 21
80.29294004327207
 31
0.0
  0
LINE
  5
267
330
1F
100
AcDbEntity
  8
1
  6
Continuous
 62
     7
100
AcDbLine
 10
-14.98270952585227
 20
80.29294004327207
 30
0.0
 11
-15.58270952585255
 21
79.69294004327182
 31
0.0
  0
LINE
  5
268
330
1F
100
AcDbEntity
  8
1
  6
Continuous
 62
     7
100
AcDbLine
 10
-15.58270952585255
 20
75.29294004327237
 30
0.0
 11
-14.98270952585227
 21
74.6929400432721
 31
0.0
  0
LINE
  5
269
330
1F
100
AcDbEntity
  8
1
  6
Continuous
 62
     7
100
AcDbLine
 10
-15.58270952585255
 20
75.45091569425682
 30
0.0
 11
-14.98270952585227
 21
74.90878533611084
 31
0.0
  0
LINE
  5
26A
330
1F
100
AcDbEntity
  8
1
  6
Continuous
 62
     7
100
AcDbLine
 10
-15.58270952585255
 20
75.82826654187913
 30
0.0
 11
-14.9827095258523
 21
75.38631782469491
 31
0.0
  0
LINE
  5
26B
330
1F
100
AcDbEntity
  8
1
  6
Continuous
 62
     7
100
AcDbLine
 10
-15.58270952585255
 20
76.40640158173379
 30
0.0
 11
-14.98270952585227
 21
76.11794004327213
 31
0.0
  0
LINE
  5
26C
330
1F
100
AcDbEntity
  8
1
  6
Continuous
 62
     7
100
AcDbLine
 10
-15.58270952585255
 20
77.11558919564978
 30
0.0
 11
-14.98270952585227
 21
77.01540755468804
 31
0.0
  0
LINE
  5
26D
330
1F
100
AcDbEntity
  8
1
  6
Continuous
 62
     7
100
AcDbLine
 10
-15.58270952585255
 20
77.87029089089448
 30
0.0
 11
-14.98270952585227
 21
77.97047253185622
 31
0.0
  0
LINE
  5
26E
330
1F
100
AcDbEntity
  8
1
  6
Continuous
 62
     7
100
AcDbLine
 10
-15.58270952585255
 20
78.57947850481045
 30
0.0
 11
-14.98270952585227
 21
78.86794004327213
 31
0.0
  0
LINE
  5
26F
330
1F
100
AcDbEntity
  8
1
  6
Continuous
 62
     7
100
AcDbLine
 10
-15.58270952585255
 20
79.15761354466505
 30
0.0
 11
-14.98270952585227
 21
79.59956226184927
 31
0.0
  0
LINE
  5
270
330
1F
100
AcDbEntity
  8
1
  6
Continuous
 62
     7
100
AcDbLine
 10
-15.58270952585255
 20
79.53496439228735
 30
0.0
 11
-14.98270952585227
 21
80.07709475043333
 31
0.0
  0
LINE
  5
271
330
1F
100
AcDbEntity
  8
1
  6
Continuous
 62
     7
100
AcDbLine
 10
-61.9906851768374
 20
27.9729400432739
 30
0.0
 11
-61.44855481869142
 21
27.37294004327363
 31
0.0
  0
LINE
  5
272
330
1F
100
AcDbEntity
  8
1
  6
Continuous
 62
     7
100
AcDbLine
 10
-62.3680360244597
 20
27.9729400432739
 30
0.0
 11
-61.9260873072755
 21
27.37294004327363
 31
0.0
  0
LINE
  5
273
330
1F
100
AcDbEntity
  8
1
  6
Continuous
 62
     7
100
AcDbLine
 10
-62.9461710643143
 20
27.9729400432739
 30
0.0
 11
-62.65770952585261
 21
27.37294004327363
 31
0.0
  0
LINE
  5
274
330
1F
100
AcDbEntity
  8
1
  6
Continuous
 62
     7
100
AcDbLine
 10
-63.65535867823031
 20
27.9729400432739
 30
0.0
 11
-63.55517703726851
 21
27.37294004327363
 31
0.0
  0
LINE
  5
275
330
1F
100
AcDbEntity
  8
1
  6
Continuous
 62
     7
100
AcDbLine
 10
-64.41006037347502
 20
27.9729400432739
 30
0.0
 11
-64.51024201443671
 21
27.37294004327363
 31
0.0
  0
LINE
  5
276
330
1F
100
AcDbEntity
  8
1
  6
Continuous
 62
     7
100
AcDbLine
 10
-65.11924798739092
 20
27.9729400432739
 30
0.0
 11
-65.40770952585261
 21
27.37294004327363
 31
0.0
  0
LINE
  5
277
330
1F
100
AcDbEntity
  8
1
  6
Continuous
 62
     7
100
AcDbLine
 10
-65.6973830272456
 20
27.9729400432739
 30
0.0
 11
-66.13933174442981
 21
27.37294004327366
 31
0.0
  0
LINE
  5
278
330
1F
100
AcDbEntity
  8
1
  6
Continuous
 62
     7
100
AcDbLine
 10
-66.0747338748679
 20
27.9729400432739
 30
0.0
 11
-66.61686423301391
 21
27.37294004327363
 31
0.0
  0
LINE
  5
279
330
1F
100
AcDbEntity
  8
1
  6
Continuous
 62
     7
100
AcDbLine
 10
-66.2327095258524
 20
27.9729400432739
 30
0.0
 11
-66.83270952585262
 21
27.37294004327363
 31
0.0
  0
LINE
  5
27A
330
1F
100
AcDbEntity
  8
1
  6
Continuous
 62
     7
100
AcDbLine
 10
-61.23270952585271
 20
27.37294004327363
 30
0.0
 11
-61.83270952585291
 21
27.9729400432739
 31
0.0
  0
LINE
  5
27B
330
1F
100
AcDbEntity
  8
1
  6
Continuous
 62
     7
100
AcDbLine
 10
-61.23270952585271
 20
27.37294004327363
 30
0.0
 11
-66.83270952585262
 21
27.37294004327363
 31
0.0
  0
LINE
  5
27C
330
1F
100
AcDbEntity
  8
1
  6
Continuous
 62
     7
100
AcDbLine
 10
-61.23270952585271
 20
27.02294004327361
 30
0.0
 11
-61.23270952585271
 21
27.37294004327363
 31
0.0
  0
LINE
  5
27D
330
1F
100
AcDbEntity
  8
1
  6
Continuous
 62
     7
100
AcDbLine
 10
-66.83270952585262
 20
27.37294004327363
 30
0.0
 11
-66.83270952585262
 21
27.02294004327361
 31
0.0
  0
LINE
  5
27E
330
1F
100
AcDbEntity
  8
1
  6
Continuous
 62
     7
100
AcDbLine
 10
-94.5
 20
2.49999999999994
 30
0.0
 11
-2.5
 21
2.49999999999994
 31
0.0
  0
LINE
  5
27F
330
1F
100
AcDbEntity
  8
1
  6
Continuous
 62
     7
100
AcDbLine
 10
-94.5
 20
10.0
 30
0.0
 11
-94.5
 21
2.49999999999994
 31
0.0
  0
LINE
  5
280
330
1F
100
AcDbEntity
  8
1
  6
Continuous
 62
     7
100
AcDbLine
 10
-24.5
 20
10.0
 30
0.0
 11
-24.5
 21
2.5
 31
0.0
  0
LINE
  5
281
102
{ACAD_REACTORS
330
365
102
}
330
1F
100
AcDbEntity
  8
1
  6
Continuous
 62
     7
100
AcDbLine
 10
-7.99518298896197
 20
5.03874991991631
 30
0.0
 11
-7.99518298896197
 21
7.46125008008369
 31
0.0
  0
LINE
  5
282
102
{ACAD_REACTORS
330
365
102
}
330
1F
100
AcDbEntity
  8
1
  6
Continuous
 62
     7
100
AcDbLine
 10
-7.07856258004711
 20
5.27900104019017
 30
0.0
 11
-7.74522924671373
 21
4.89438565557487
 31
0.0
  0
LINE
  5
283
102
{ACAD_REACTORS
330
365
102
}
330
1F
100
AcDbEntity
  8
1
  6
Continuous
 62
     7
100
AcDbLine
 10
-7.66184965562865
 20
5.32731826632397
 30
0.0
 11
-7.24513673121027
 21
5.56772956887312
 31
0.0
  0
LINE
  5
284
102
{ACAD_REACTORS
330
365
102
}
330
1F
100
AcDbEntity
  8
1
  6
Continuous
 62
     7
100
AcDbLine
 10
-7.66184965562865
 20
6.08333333333332
 30
0.0
 11
-7.66184965562865
 21
5.32731826632397
 31
0.0
  0
LINE
  5
285
102
{ACAD_REACTORS
330
365
102
}
330
1F
100
AcDbEntity
  8
1
  6
Continuous
 62
     7
100
AcDbLine
 10
-7.16184965562865
 20
6.08333333333332
 30
0.0
 11
-7.66184965562865
 21
6.08333333333332
 31
0.0
  0
LINE
  5
286
102
{ACAD_REACTORS
330
365
102
}
330
1F
100
AcDbEntity
  8
1
  6
Continuous
 62
     7
100
AcDbLine
 10
-7.66184965562865
 20
6.41666666666663
 30
0.0
 11
-7.16184965562865
 21
6.41666666666663
 31
0.0
  0
LINE
  5
287
102
{ACAD_REACTORS
330
365
102
}
330
1F
100
AcDbEntity
  8
1
  6
Continuous
 62
     7
100
AcDbLine
 10
-7.66184965562865
 20
7.17268173367597
 30
0.0
 11
-7.66184965562865
 21
6.41666666666663
 31
0.0
  0
LINE
  5
288
102
{ACAD_REACTORS
330
365
102
}
330
1F
100
AcDbEntity
  8
1
  6
Continuous
 62
     7
100
AcDbLine
 10
-7.24513673121027
 20
6.93227043112688
 30
0.0
 11
-7.66184965562865
 21
7.17268173367597
 31
0.0
  0
LINE
  5
289
102
{ACAD_REACTORS
330
365
102
}
330
1F
100
AcDbEntity
  8
1
  6
Continuous
 62
     7
100
AcDbLine
 10
-7.74522924671373
 20
7.60561434442513
 30
0.0
 11
-7.07856258004711
 21
7.22099895980972
 31
0.0
  0
LINE
  5
28A
102
{ACAD_REACTORS
330
368
102
}
330
1F
100
AcDbEntity
  8
1
  6
Continuous
 62
     7
100
AcDbLine
 10
-11.32851632229534
 20
5.42336530453161
 30
0.0
 11
-11.32851632229534
 21
7.07663469546833
 31
0.0
  0
LINE
  5
28B
102
{ACAD_REACTORS
330
368
102
}
330
1F
100
AcDbEntity
  8
1
  6
Continuous
 62
     7
100
AcDbLine
 10
-10.99518298896203
 20
5.51962595863165
 30
0.0
 11
-10.99518298896203
 21
5.42336530453161
 31
0.0
  0
LINE
  5
28C
102
{ACAD_REACTORS
330
368
102
}
330
1F
100
AcDbEntity
  8
1
  6
Continuous
 62
     7
100
AcDbLine
 10
-10.99518298896203
 20
7.07663469546833
 30
0.0
 11
-10.99518298896203
 21
5.51962595863165
 31
0.0
  0
LINE
  5
28D
102
{ACAD_REACTORS
330
366
102
}
330
1F
100
AcDbEntity
  8
1
  6
Continuous
 62
     7
100
AcDbLine
 10
-9.41180339787695
 20
4.2213087324979
 30
0.0
 11
-10.49509047345851
 21
4.84628204533345
 31
0.0
  0
LINE
  5
28E
102
{ACAD_REACTORS
330
366
102
}
330
1F
100
AcDbEntity
  8
1
  6
Continuous
 62
     7
100
AcDbLine
 10
-10.32851632229534
 20
5.13501057401635
 30
0.0
 11
-9.24522924671374
 21
4.5100372611808
 31
0.0
  0
LINE
  5
28F
102
{ACAD_REACTORS
330
366
102
}
330
1F
100
AcDbEntity
  8
1
  6
Continuous
 62
     7
100
AcDbLine
 10
-10.32851632229534
 20
7.46125008008369
 30
0.0
 11
-10.32851632229534
 21
5.13501057401635
 31
0.0
  0
LINE
  5
290
102
{ACAD_REACTORS
330
366
102
}
330
1F
100
AcDbEntity
  8
1
  6
Continuous
 62
     7
100
AcDbLine
 10
-10.66184965562866
 20
5.13501057401629
 30
0.0
 11
-10.66184965562866
 21
7.46125008008369
 31
0.0
  0
LINE
  5
291
102
{ACAD_REACTORS
330
367
102
}
330
1F
100
AcDbEntity
  8
1
  6
Continuous
 62
     7
100
AcDbLine
 10
-8.57573316410702
 20
7.93185020913614
 30
0.0
 11
-9.16184965562866
 21
6.91666666666663
 31
0.0
  0
LINE
  5
292
102
{ACAD_REACTORS
330
367
102
}
330
1F
100
AcDbEntity
  8
1
  6
Continuous
 62
     7
100
AcDbLine
 10
-8.32851632229534
 20
4.6541345353009
 30
0.0
 11
-8.32851632229534
 21
7.86560865601728
 31
0.0
  0
LINE
  5
293
102
{ACAD_REACTORS
330
367
102
}
330
1F
100
AcDbEntity
  8
1
  6
Continuous
 62
     7
100
AcDbLine
 10
-8.66184965562866
 20
6.25
 30
0.0
 11
-8.66184965562866
 21
4.6541345353009
 31
0.0
  0
LINE
  5
294
102
{ACAD_REACTORS
330
367
102
}
330
1F
100
AcDbEntity
  8
1
  6
Continuous
 62
     7
100
AcDbLine
 10
-9.66184965562866
 20
5.42379253631645
 30
0.0
 11
-9.66184965562866
 21
6.25
 31
0.0
  0
LINE
  5
295
102
{ACAD_REACTORS
330
367
102
}
330
1F
100
AcDbEntity
  8
1
  6
Continuous
 62
     7
100
AcDbLine
 10
-9.99518298896203
 20
6.25
 30
0.0
 11
-9.99518298896203
 21
5.42379253631645
 31
0.0
  0
LINE
  5
296
102
{ACAD_REACTORS
330
367
102
}
330
1F
100
AcDbEntity
  8
1
  6
Continuous
 62
     7
100
AcDbLine
 10
-9.7479661471503
 20
7.93185020913614
 30
0.0
 11
-9.16184965562866
 21
6.91666666666663
 31
0.0
  0
LINE
  5
297
102
{ACAD_REACTORS
330
367
102
}
330
1F
100
AcDbEntity
  8
1
  6
Continuous
 62
     7
100
AcDbLine
 10
-9.99518298896203
 20
6.25
 30
0.0
 11
-9.99518298896203
 21
7.86560865601728
 31
0.0
  0
LINE
  5
298
330
1F
100
AcDbEntity
  8
1
  6
Continuous
 62
     7
100
AcDbLine
 10
-9.16184965562866
 20
3.75
 30
0.0
 11
-13.37006729319944
 21
6.17781786782928
 31
0.0
  0
LINE
  5
299
330
1F
100
AcDbEntity
  8
1
  6
Continuous
 62
     7
100
AcDbLine
 10
-4.95363201805793
 20
6.17781786782928
 30
0.0
 11
-9.16184965562866
 21
3.75
 31
0.0
  0
LINE
  5
29A
330
1F
100
AcDbEntity
  8
1
  6
Continuous
 62
     7
100
AcDbLine
 10
-9.16184965562866
 20
8.75
 30
0.0
 11
-4.95363201805793
 21
6.32218213217067
 31
0.0
  0
LINE
  5
29B
330
1F
100
AcDbEntity
  8
1
  6
Continuous
 62
     7
100
AcDbLine
 10
-13.37006729319944
 20
6.32218213217067
 30
0.0
 11
-9.16184965562866
 21
8.75
 31
0.0
  0
LINE
  5
29C
102
{ACAD_REACTORS
330
367
102
}
330
1F
100
AcDbEntity
  8
1
  6
Continuous
 62
     7
100
AcDbLine
 10
-9.66184965562866
 20
7.11602540378442
 30
0.0
 11
-9.66184965562866
 21
6.25
 31
0.0
  0
LINE
  5
29D
102
{ACAD_REACTORS
330
367
102
}
330
1F
100
AcDbEntity
  8
1
  6
Continuous
 62
     7
100
AcDbLine
 10
-9.2340184392774
 20
6.375
 30
0.0
 11
-9.66184965562866
 21
7.11602540378442
 31
0.0
  0
LINE
  5
29E
102
{ACAD_REACTORS
330
367
102
}
330
1F
100
AcDbEntity
  8
1
  6
Continuous
 62
     7
100
AcDbLine
 10
-8.66184965562866
 20
7.11602540378442
 30
0.0
 11
-9.08968087197997
 21
6.375
 31
0.0
  0
LINE
  5
29F
102
{ACAD_REACTORS
330
367
102
}
330
1F
100
AcDbEntity
  8
1
  6
Continuous
 62
     7
100
AcDbLine
 10
-8.66184965562866
 20
6.25
 30
0.0
 11
-8.66184965562866
 21
7.11602540378442
 31
0.0
  0
LINE
  5
2A0
330
1F
100
AcDbEntity
  8
1
  6
Continuous
 62
     7
100
AcDbLine
 10
-15.82369931125731
 20
10.0
 30
0.0
 11
-15.82369931125731
 21
2.5
 31
0.0
  0
LINE
  5
2A1
330
1F
100
AcDbEntity
  8
1
  6
Continuous
 62
     7
100
AcDbLine
 10
-94.5
 20
10.0
 30
0.0
 11
-2.5
 21
10.0
 31
0.0
  0
LINE
  5
2A2
330
1F
100
AcDbEntity
  8
1
  6
Continuous
 62
     7
100
AcDbLine
 10
-94.5
 20
6.25
 30
0.0
 11
-79.5
 21
6.25
 31
0.0
  0
LINE
  5
2A3
330
1F
100
AcDbEntity
  8
1
  6
Continuous
 62
     7
100
AcDbLine
 10
-105.0000000000001
 20
74.2499999999999
 30
0.0
 11
-97.50000000000006
 21
74.2499999999999
 31
0.0
  0
LINE
  5
2A4
330
1F
100
AcDbEntity
  8
1
  6
Continuous
 62
     7
100
AcDbLine
 10
0.0
 20
0.0
 30
0.0
 11
0.0
 21
148.5000000000001
 31
0.0
  0
LINE
  5
2A5
330
1F
100
AcDbEntity
  8
1
  6
Continuous
 62
     7
100
AcDbLine
 10
-105.0000000000001
 20
0.0
 30
0.0
 11
0.0
 21
0.0
 31
0.0
  0
LINE
  5
2A6
330
1F
100
AcDbEntity
  8
1
  6
Continuous
 62
     7
100
AcDbLine
 10
-105.0000000000001
 20
148.5000000000001
 30
0.0
 11
-105.0000000000001
 21
0.0
 31
0.0
  0
LINE
  5
2A7
330
1F
100
AcDbEntity
  8
1
  6
Continuous
 62
     7
100
AcDbLine
 10
0.0
 20
148.5000000000001
 30
0.0
 11
-105.0000000000001
 21
148.5000000000001
 31
0.0
  0
LINE
  5
2A8
330
1F
100
AcDbEntity
  8
1
  6
Continuous
 62
     7
100
AcDbLine
 10
-2.5
 20
2.49999999999994
 30
0.0
 11
-2.5
 21
146.0000000000001
 31
0.0
  0
LINE
  5
2A9
330
1F
100
AcDbEntity
  8
1
  6
Continuous
 62
     7
100
AcDbLine
 10
-2.5
 20
146.0000000000001
 30
0.0
 11
-94.5
 21
146.0000000000001
 31
0.0
  0
LINE
  5
2AA
330
1F
100
AcDbEntity
  8
1
  6
Continuous
 62
     7
100
AcDbLine
 10
-94.5
 20
146.0000000000001
 30
0.0
 11
-94.5
 21
2.49999999999994
 31
0.0
  0
LINE
  5
2AB
330
1F
100
AcDbEntity
  8
1
  6
Continuous
 62
     7
100
AcDbLine
 10
-82.0
 20
17.5
 30
0.0
 11
-82.0
 21
20.0
 31
0.0
  0
LINE
  5
2AC
330
1F
100
AcDbEntity
  8
1
  6
Continuous
 62
     7
100
AcDbLine
 10
-91.0
 20
17.5
 30
0.0
 11
-91.0
 21
20.0
 31
0.0
  0
LINE
  5
2AD
330
1F
100
AcDbEntity
  8
1
  6
Continuous
 62
     7
100
AcDbLine
 10
-94.5
 20
20.0
 30
0.0
 11
-2.5
 21
20.0
 31
0.0
  0
LINE
  5
2AE
330
1F
100
AcDbEntity
  8
1
  6
Continuous
 62
     7
100
AcDbLine
 10
-82.0
 20
15.0
 30
0.0
 11
-82.0
 21
17.5
 31
0.0
  0
LINE
  5
2AF
330
1F
100
AcDbEntity
  8
1
  6
Continuous
 62
     7
100
AcDbLine
 10
-91.0
 20
15.0
 30
0.0
 11
-91.0
 21
17.5
 31
0.0
  0
LINE
  5
2B0
330
1F
100
AcDbEntity
  8
1
  6
Continuous
 62
     7
100
AcDbLine
 10
-94.5
 20
17.5
 30
0.0
 11
-2.5
 21
17.5
 31
0.0
  0
LINE
  5
2B1
330
1F
100
AcDbEntity
  8
1
  6
Continuous
 62
     7
100
AcDbLine
 10
-82.0
 20
12.5
 30
0.0
 11
-82.0
 21
15.0
 31
0.0
  0
LINE
  5
2B2
330
1F
100
AcDbEntity
  8
1
  6
Continuous
 62
     7
100
AcDbLine
 10
-91.0
 20
12.5
 30
0.0
 11
-91.0
 21
15.0
 31
0.0
  0
LINE
  5
2B3
330
1F
100
AcDbEntity
  8
1
  6
Continuous
 62
     7
100
AcDbLine
 10
-94.5
 20
15.0
 30
0.0
 11
-2.5
 21
15.0
 31
0.0
  0
LINE
  5
2B4
330
1F
100
AcDbEntity
  8
1
  6
Continuous
 62
     7
100
AcDbLine
 10
-82.0
 20
10.0
 30
0.0
 11
-82.0
 21
12.5
 31
0.0
  0
LINE
  5
2B5
330
1F
100
AcDbEntity
  8
1
  6
Continuous
 62
     7
100
AcDbLine
 10
-91.0
 20
10.0
 30
0.0
 11
-91.0
 21
12.5
 31
0.0
  0
LINE
  5
2B6
330
1F
100
AcDbEntity
  8
1
  6
Continuous
 62
     7
100
AcDbLine
 10
-94.5
 20
12.5
 30
0.0
 11
-2.5
 21
12.5
 31
0.0
  0
LINE
  5
2B7
330
1F
100
AcDbEntity
  8
1
  6
Continuous
 62
     7
100
AcDbLine
 10
-79.5
 20
10.0
 30
0.0
 11
-79.5
 21
2.5
 31
0.0
  0
ARC
  5
2B8
102
{ACAD_REACTORS
330
35F
102
}
330
1F
100
AcDbEntity
  8
1
  6
Continuous
 62
     2
100
AcDbCircle
 10
-63.9532196621101
 20
127.6423052368843
 30
0.0
 40
0.0794898637424921
100
AcDbArc
 50
29.99999999995982
 51
180.0
  0
ARC
  5
2B9
102
{ACAD_REACTORS
330
35F
102
}
330
1F
100
AcDbEntity
  8
1
  6
Continuous
 62
     2
100
AcDbCircle
 10
-63.9327095258527
 20
126.1772155650637
 30
0.0
 40
0.100000000000108
100
AcDbArc
 50
180.0
 51
0.0
  0
ARC
  5
2BA
102
{ACAD_REACTORS
330
35F
102
}
330
1F
100
AcDbEntity
  8
1
  6
Continuous
 62
     2
100
AcDbCircle
 10
-63.13270952585272
 20
125.7154207644544
 30
0.0
 40
0.1000000000000796
100
AcDbArc
 50
180.0
 51
0.0
  0
ARC
  5
2BB
102
{ACAD_REACTORS
330
35F
102
}
330
1F
100
AcDbEntity
  8
1
  6
Continuous
 62
     2
100
AcDbCircle
 10
-63.11219938959532
 20
127.6423052368843
 30
0.0
 40
0.0794898637425092
100
AcDbArc
 50
0.0
 51
150.0000000000811
  0
ARC
  5
2BC
102
{ACAD_REACTORS
330
35E
102
}
330
1F
100
AcDbEntity
  8
1
  6
Continuous
 62
     2
100
AcDbCircle
 10
-64.3327095258527
 20
127.3996900913241
 30
0.0
 40
0.0999999999999091
100
AcDbArc
 50
0.0
 51
180.0
  0
ARC
  5
2BD
102
{ACAD_REACTORS
330
35E
102
}
330
1F
100
AcDbEntity
  8
1
  6
Continuous
 62
     2
100
AcDbCircle
 10
-63.63270952585272
 20
125.5423438413775
 30
0.0
 40
0.1000000000000977
100
AcDbArc
 50
240.0183606310961
 51
60.01836063113493
  0
ARC
  5
2BE
102
{ACAD_REACTORS
330
35D
102
}
330
1F
100
AcDbEntity
  8
1
  6
Continuous
 62
     2
100
AcDbCircle
 10
-64.7327095258528
 20
127.1689208605549
 30
0.0
 40
0.1000000000000796
100
AcDbArc
 50
0.0
 51
180.0
  0
ARC
  5
2BF
102
{ACAD_REACTORS
330
35D
102
}
330
1F
100
AcDbEntity
  8
1
  6
Continuous
 62
     2
100
AcDbCircle
 10
-64.7327095258528
 20
126.1769592259928
 30
0.0
 40
0.0999999999999091
100
AcDbArc
 50
180.0
 51
0.0
  0
ARC
  5
2C0
102
{ACAD_REACTORS
330
360
102
}
330
1F
100
AcDbEntity
  8
1
  6
Continuous
 62
     2
100
AcDbCircle
 10
-62.33270952585271
 20
127.1689208605549
 30
0.0
 40
0.1000000000000106
100
AcDbArc
 50
240.018360631199
 51
60.01836063116286
  0
ARC
  5
2C1
102
{ACAD_REACTORS
330
360
102
}
330
1F
100
AcDbEntity
  8
1
  6
Continuous
 62
     2
100
AcDbCircle
 10
-62.33270952585271
 20
126.6729400432738
 30
0.0
 40
0.0999999999999943
100
AcDbArc
 50
270.0
 51
90.0
  0
ARC
  5
2C2
102
{ACAD_REACTORS
330
360
102
}
330
1F
100
AcDbEntity
  8
1
  6
Continuous
 62
     2
100
AcDbCircle
 10
-62.33270952585271
 20
126.1769592259928
 30
0.0
 40
0.0999999999999156
100
AcDbArc
 50
299.9816393688371
 51
119.9816393687767
  0
ARC
  5
2C3
330
1F
100
AcDbEntity
  8
0
  6
Continuous
 62
     7
100
AcDbCircle
 10
-59.08062799783561
 20
119.5995381716971
 30
0.0
 40
0.0999999999999295
100
AcDbArc
 50
135.0000000000029
 51
225.0000000000374
  0
ARC
  5
2C4
330
1F
100
AcDbEntity
  8
0
  6
Continuous
 62
     7
100
AcDbCircle
 10
-56.88859697615722
 20
117.4075071500188
 30
0.0
 40
0.0999999999999948
100
AcDbArc
 50
224.9999999999597
 51
315.0000000000057
  0
ARC
  5
2C5
330
1F
100
AcDbEntity
  8
0
  6
Continuous
 62
     7
100
AcDbCircle
 10
-54.7672766325977
 20
119.5288274935785
 30
0.0
 40
0.1000000000000651
100
AcDbArc
 50
315.0
 51
45.00000000000576
  0
ARC
  5
2C6
330
1F
100
AcDbEntity
  8
0
  6
Continuous
 62
     7
100
AcDbCircle
 10
-56.95930765427592
 20
121.7208585152567
 30
0.0
 40
0.0999999999999948
100
AcDbArc
 50
44.99999999995971
 51
135.0000000000403
  0
ARC
  5
2C7
330
1F
100
AcDbEntity
  8
0
  6
Continuous
 62
     7
100
AcDbCircle
 10
-73.29814241910772
 20
119.5288274935785
 30
0.0
 40
0.0999999999999948
100
AcDbArc
 50
135.0000000000403
 51
225.0
  0
ARC
  5
2C8
330
1F
100
AcDbEntity
  8
0
  6
Continuous
 62
     7
100
AcDbCircle
 10
-68.98479105387001
 20
119.599538171697
 30
0.0
 40
0.0999999999999345
100
AcDbArc
 50
315.0000000000057
 51
44.99999999998848
  0
ARC
  5
2C9
330
1F
100
AcDbEntity
  8
0
  6
Continuous
 62
     7
100
AcDbCircle
 10
-71.1061113974295
 20
121.7208585152568
 30
0.0
 40
0.0999999999999144
100
AcDbArc
 50
45.00000000000576
 51
135.0000000000057
  0
ARC
  5
2CA
330
1F
100
AcDbEntity
  8
0
  6
Continuous
 62
     7
100
AcDbCircle
 10
-71.17682207554812
 20
117.4075071500188
 30
0.0
 40
0.0999999999999948
100
AcDbArc
 50
224.9999999999597
 51
315.0000000000403
  0
ARC
  5
2CB
330
1F
100
AcDbEntity
  8
0
  6
Continuous
 62
     7
100
AcDbCircle
 10
-54.88908930503031
 20
133.507470823381
 30
0.0
 40
0.1000000000000273
100
AcDbArc
 50
316.9999999999749
 51
46.99999999997488
  0
ARC
  5
2CC
330
1F
100
AcDbEntity
  8
0
  6
Continuous
 62
     7
100
AcDbCircle
 10
-57.08315040988781
 20
135.5534659035685
 30
0.0
 40
0.1000000000000065
100
AcDbArc
 50
46.99999999996376
 51
137.0000000000197
  0
ARC
  5
2CD
330
1F
100
AcDbEntity
  8
0
  6
Continuous
 62
     7
100
AcDbCircle
 10
-57.00328422122401
 20
131.2402743483615
 30
0.0
 40
0.1000000000000273
100
AcDbArc
 50
226.9999999999748
 51
317.0000000000106
  0
ARC
  5
2CE
330
1F
100
AcDbEntity
  8
0
  6
Continuous
 62
     7
100
AcDbCircle
 10
-59.19734532608142
 20
133.286269428549
 30
0.0
 40
0.1000000000001572
100
AcDbArc
 50
137.0000000000443
 51
226.999999999931
  0
ARC
  5
2CF
330
1F
100
AcDbEntity
  8
0
  6
Continuous
 62
     7
100
AcDbCircle
 10
-69.1579778481297
 20
129.6427881082373
 30
0.0
 40
0.0999999999999725
100
AcDbArc
 50
137.9999999999767
 51
227.9999999999876
  0
ARC
  5
2D0
330
1F
100
AcDbEntity
  8
0
  6
Continuous
 62
     7
100
AcDbCircle
 10
-64.84683707007322
 20
129.797917704957
 30
0.0
 40
0.0999999999999936
100
AcDbArc
 50
317.9999999999876
 51
48.00000000000819
  0
ARC
  5
2D1
330
1F
100
AcDbEntity
  8
0
  6
Continuous
 62
     7
100
AcDbCircle
 10
-67.15058602905312
 20
131.8722225846695
 30
0.0
 40
0.0999999999999936
100
AcDbArc
 50
47.99999999998761
 51
137.9999999999646
  0
ARC
  5
2D2
330
1F
100
AcDbEntity
  8
0
  6
Continuous
 62
     7
100
AcDbCircle
 10
-66.85422888914981
 20
127.5684832285248
 30
0.0
 40
0.0999999999999155
100
AcDbArc
 50
228.000000000013
 51
318.0000000000953
  0
ARC
  5
2D3
330
1F
100
AcDbEntity
  8
0
  6
Continuous
 62
     7
100
AcDbCircle
 10
-71.5327095258527
 20
119.1729400432739
 30
0.0
 40
3.0
100
AcDbArc
 50
180.0
 51
270.0
  0
ARC
  5
2D4
330
1F
100
AcDbEntity
  8
0
  6
Continuous
 62
     7
100
AcDbCircle
 10
-56.5327095258527
 20
119.1729400432739
 30
0.0
 40
3.0
100
AcDbArc
 50
270.0
 51
0.0
  0
ARC
  5
2D5
330
1F
100
AcDbEntity
  8
0
  6
Continuous
 62
     7
100
AcDbCircle
 10
-56.53270952585281
 20
134.1729400432739
 30
0.0
 40
3.0
100
AcDbArc
 50
0.0
 51
89.99999999999797
  0
ARC
  5
2D6
330
1F
100
AcDbEntity
  8
0
  6
Continuous
 62
     7
100
AcDbCircle
 10
-71.5327095258527
 20
134.1729400432739
 30
0.0
 40
3.0
100
AcDbArc
 50
90.0
 51
180.0
  0
ARC
  5
2D7
330
1F
100
AcDbEntity
  8
0
  6
Continuous
 62
     7
100
AcDbCircle
 10
-64.0327095258527
 20
31.4729400432733
 30
0.0
 40
3.500000000000222
100
AcDbArc
 50
84.2608295227324
 51
95.73917047726495
  0
ARC
  5
2D8
330
1F
100
AcDbEntity
  8
0
  6
Continuous
 62
     7
100
AcDbCircle
 10
-63.6327095258526
 20
35.4528897916998
 30
0.0
 40
0.4999999999998096
100
AcDbArc
 50
264.260829522728
 51
0.00000000002117
  0
ARC
  5
2D9
330
1F
100
AcDbEntity
  8
0
  6
Continuous
 62
     7
100
AcDbCircle
 10
-65.93270952585262
 20
36.57294004327418
 30
0.0
 40
1.0
100
AcDbArc
 50
0.0
 51
90.0
  0
ARC
  5
2DA
330
1F
100
AcDbEntity
  8
0
  6
Continuous
 62
     7
100
AcDbCircle
 10
-64.43270952585262
 20
35.45288979170008
 30
0.0
 40
0.5
100
AcDbArc
 50
180.0
 51
275.7391704772671
  0
ARC
  5
2DB
330
1F
100
AcDbEntity
  8
0
  6
Continuous
 62
     7
100
AcDbCircle
 10
-65.93270952585262
 20
40.37294004327419
 30
0.0
 40
1.0
100
AcDbArc
 50
270.0
 51
0.0
  0
ARC
  5
2DC
330
1F
100
AcDbEntity
  8
0
  6
Continuous
 62
     7
100
AcDbCircle
 10
-62.1327095258526
 20
40.3729400432732
 30
0.0
 40
1.0
100
AcDbArc
 50
179.9999999999548
 51
270.0
  0
ARC
  5
2DD
330
1F
100
AcDbEntity
  8
0
  6
Continuous
 62
     7
100
AcDbCircle
 10
-69.03270952585261
 20
38.87294004327391
 30
0.0
 40
0.5000000000000853
100
AcDbArc
 50
90.0
 51
179.9999999999902
  0
ARC
  5
2DE
330
1F
100
AcDbEntity
  8
0
  6
Continuous
 62
     7
100
AcDbCircle
 10
-69.03270952585261
 20
38.07294004327398
 30
0.0
 40
0.5
100
AcDbArc
 50
180.0
 51
270.0
  0
ARC
  5
2DF
330
1F
100
AcDbEntity
  8
0
  6
Continuous
 62
     7
100
AcDbCircle
 10
-62.13270952585272
 20
36.57294004327361
 30
0.0
 40
1.000000000000568
100
AcDbArc
 50
89.99999999999308
 51
179.9999999999674
  0
ARC
  5
2E0
330
1F
100
AcDbEntity
  8
0
  6
Continuous
 62
     7
100
AcDbCircle
 10
-59.0327095258527
 20
38.07294004327351
 30
0.0
 40
0.499999999999531
100
AcDbArc
 50
270.0000000000106
 51
0.0000000000342
  0
ARC
  5
2E1
330
1F
100
AcDbEntity
  8
0
  6
Continuous
 62
     7
100
AcDbCircle
 10
-59.03270952585261
 20
38.87294004327399
 30
0.0
 40
0.5
100
AcDbArc
 50
0.0
 51
90.0
  0
ARC
  5
2E2
330
1F
100
AcDbEntity
  8
0
  6
Continuous
 62
     7
100
AcDbCircle
 10
-71.5327095258527
 20
45.9729400432739
 30
0.0
 40
3.0
100
AcDbArc
 50
90.0
 51
180.0
  0
ARC
  5
2E3
330
1F
100
AcDbEntity
  8
0
  6
Continuous
 62
     7
100
AcDbCircle
 10
-71.5327095258527
 20
30.9729400432739
 30
0.0
 40
3.0
100
AcDbArc
 50
180.0
 51
270.0
  0
ARC
  5
2E4
330
1F
100
AcDbEntity
  8
0
  6
Continuous
 62
     7
100
AcDbCircle
 10
-67.78270952585261
 20
34.7229400432731
 30
0.0
 40
1.599999999999994
100
AcDbArc
 50
180.0
 51
171.0107006548234
  0
ARC
  5
2E5
330
1F
100
AcDbEntity
  8
0
  6
Continuous
 62
     7
100
AcDbCircle
 10
-67.78270952585281
 20
34.7229400432745
 30
0.0
 40
1.599999999999746
100
AcDbArc
 50
171.0107006548718
 51
180.0000000000501
  0
ARC
  5
2E6
330
1F
100
AcDbEntity
  8
0
  6
Continuous
 62
     7
100
AcDbCircle
 10
-56.5327095258527
 20
45.9729400432739
 30
0.0
 40
3.0
100
AcDbArc
 50
0.0
 51
90.0
  0
ARC
  5
2E7
330
1F
100
AcDbEntity
  8
0
  6
Continuous
 62
     7
100
AcDbCircle
 10
-56.5327095258527
 20
30.9729400432739
 30
0.0
 40
3.0
100
AcDbArc
 50
270.0
 51
0.0
  0
ARC
  5
2E8
330
1F
100
AcDbEntity
  8
0
  6
Continuous
 62
     7
100
AcDbCircle
 10
-64.0327095258527
 20
31.4729400432733
 30
0.0
 40
2.000000000000076
100
AcDbArc
 50
116.7436839503994
 51
172.5052825460736
  0
ARC
  5
2E9
330
1F
100
AcDbEntity
  8
0
  6
Continuous
 62
     7
100
AcDbCircle
 10
-66.31306037605101
 20
31.77294004327329
 30
0.0
 40
0.3000000000001385
100
AcDbArc
 50
312.5483987337532
 51
352.5052825460741
  0
ARC
  5
2EA
330
1F
100
AcDbEntity
  8
0
  6
Continuous
 62
     7
100
AcDbCircle
 10
-64.0327095258527
 20
31.4729400432733
 30
0.0
 40
1.999999999999978
100
AcDbArc
 50
63.25631604959355
 51
116.7436839503994
  0
ARC
  5
2EB
330
1F
100
AcDbEntity
  8
0
  6
Continuous
 62
     7
100
AcDbCircle
 10
-64.0327095258527
 20
31.4729400432733
 30
0.0
 40
1.999999999999972
100
AcDbArc
 50
7.49471745392647
 51
63.25631604959355
  0
ARC
  5
2EC
330
1F
100
AcDbEntity
  8
0
  6
Continuous
 62
     7
100
AcDbCircle
 10
-61.75235867565452
 20
31.77294004327329
 30
0.0
 40
0.2999999999999272
100
AcDbArc
 50
187.4947174539288
 51
227.4516012662907
  0
ARC
  5
2ED
330
1F
100
AcDbEntity
  8
0
  6
Continuous
 62
     7
100
AcDbCircle
 10
-66.31306037605101
 20
31.77294004327329
 30
0.0
 40
0.2999999999999901
100
AcDbArc
 50
270.0
 51
312.5483987337532
  0
ARC
  5
2EE
330
1F
100
AcDbEntity
  8
0
  6
Continuous
 62
     7
100
AcDbCircle
 10
-61.75235867565452
 20
31.77294004327329
 30
0.0
 40
0.299999999999927
100
AcDbArc
 50
227.4516012662907
 51
270.0
  0
ARC
  5
2EF
330
1F
100
AcDbEntity
  8
0
  6
Continuous
 62
     7
100
AcDbCircle
 10
-69.53270952585261
 20
32.9729400432741
 30
0.0
 40
1.5
100
AcDbArc
 50
180.0
 51
270.0
  0
ARC
  5
2F0
330
1F
100
AcDbEntity
  8
0
  6
Continuous
 62
     7
100
AcDbCircle
 10
-58.53270952585261
 20
32.97294004327418
 30
0.0
 40
1.50000000000048
100
AcDbArc
 50
269.9999999999924
 51
359.9999999999818
  0
ARC
  5
2F1
330
1F
100
AcDbEntity
  8
0
  6
Continuous
 62
     7
100
AcDbCircle
 10
-63.6327095258526
 20
43.47294004327359
 30
0.0
 40
0.5
100
AcDbArc
 50
359.9999999999666
 51
90.0
  0
ARC
  5
2F2
330
1F
100
AcDbEntity
  8
0
  6
Continuous
 62
     7
100
AcDbCircle
 10
-64.43270952585262
 20
43.47294004327359
 30
0.0
 40
0.4999999999997087
100
AcDbArc
 50
90.0
 51
180.0000000000334
  0
ARC
  5
2F3
330
1F
100
AcDbEntity
  8
0
  6
Continuous
 62
     7
100
AcDbCircle
 10
-69.5327095258527
 20
43.9729400432733
 30
0.0
 40
1.500000000000803
100
AcDbArc
 50
89.99999999999675
 51
179.9999999999693
  0
ARC
  5
2F4
330
1F
100
AcDbEntity
  8
0
  6
Continuous
 62
     7
100
AcDbCircle
 10
-58.53270952585261
 20
43.9729400432741
 30
0.0
 40
1.5
100
AcDbArc
 50
0.0
 51
90.0
  0
ARC
  5
2F5
330
1F
100
AcDbEntity
  8
0
  6
Continuous
 62
     7
100
AcDbCircle
 10
-64.0327095258527
 20
77.49294004327209
 30
0.0
 40
2.799999999999632
100
AcDbArc
 50
233.2132107017325
 51
36.78678929826997
  0
ARC
  5
2F6
330
1F
100
AcDbEntity
  8
0
  6
Continuous
 62
     7
100
AcDbCircle
 10
-64.0327095258527
 20
77.49294004327209
 30
0.0
 40
2.800000000000224
100
AcDbArc
 50
36.78678929826997
 51
53.21321070174283
  0
ARC
  5
2F7
330
1F
100
AcDbEntity
  8
0
  6
Continuous
 62
     7
100
AcDbCircle
 10
-64.0327095258527
 20
77.49294004327209
 30
0.0
 40
2.800000000000395
100
AcDbArc
 50
53.21321070174283
 51
216.7867892982541
  0
ARC
  5
2F8
330
1F
100
AcDbEntity
  8
0
  6
Continuous
 62
     7
100
AcDbCircle
 10
-64.0327095258527
 20
77.49294004327209
 30
0.0
 40
2.799999999999787
100
AcDbArc
 50
216.7867892982541
 51
233.2132107017325
  0
ARC
  5
2F9
330
1F
100
AcDbEntity
  8
0
  6
Continuous
 62
     7
100
AcDbCircle
 10
-70.03270952585281
 20
92.79294004327281
 30
0.0
 40
1.0
100
AcDbArc
 50
90.0
 51
180.0
  0
ARC
  5
2FA
330
1F
100
AcDbEntity
  8
0
  6
Continuous
 62
     7
100
AcDbCircle
 10
-58.03270952585281
 20
92.79294004327281
 30
0.0
 40
1.0
100
AcDbArc
 50
0.0
 51
90.0
  0
ARC
  5
2FB
330
1F
100
AcDbEntity
  8
0
  6
Continuous
 62
     7
100
AcDbCircle
 10
-20.08270952585228
 20
92.79294004327267
 30
0.0
 40
1.0
100
AcDbArc
 50
359.9999999999984
 51
90.0
  0
ARC
  5
2FC
330
1F
100
AcDbEntity
  8
0
  6
Continuous
 62
     7
100
AcDbCircle
 10
-32.08270952585228
 20
92.79294004327295
 30
0.0
 40
1.0
100
AcDbArc
 50
90.0
 51
179.9999999999984
  0
ARC
  5
2FD
330
1F
100
AcDbEntity
  8
1
  6
Continuous
 62
     7
100
AcDbCircle
 10
-64.03270952585281
 20
133.2712733766054
 30
0.0
 40
5.601666666668537
100
AcDbArc
 50
60.00984174165893
 51
119.9901582583411
  0
ARC
  5
2FE
102
{ACAD_REACTORS
330
365
102
}
330
1F
100
AcDbEntity
  8
1
  6
Continuous
 62
     7
100
AcDbCircle
 10
-7.16184965562865
 20
5.42336530453161
 30
0.0
 40
0.1666666666666572
100
AcDbArc
 50
299.9816393688326
 51
119.9816393688413
  0
ARC
  5
2FF
102
{ACAD_REACTORS
330
365
102
}
330
1F
100
AcDbEntity
  8
1
  6
Continuous
 62
     7
100
AcDbCircle
 10
-7.16184965562865
 20
6.25
 30
0.0
 40
0.1666666666666847
100
AcDbArc
 50
270.0
 51
90.0
  0
ARC
  5
300
102
{ACAD_REACTORS
330
365
102
}
330
1F
100
AcDbEntity
  8
1
  6
Continuous
 62
     7
100
AcDbCircle
 10
-7.16184965562865
 20
7.07663469546833
 30
0.0
 40
0.1666666666666886
100
AcDbArc
 50
240.0183606311493
 51
60.01836063115717
  0
ARC
  5
301
102
{ACAD_REACTORS
330
368
102
}
330
1F
100
AcDbEntity
  8
1
  6
Continuous
 62
     7
100
AcDbCircle
 10
-11.16184965562866
 20
5.42336530453161
 30
0.0
 40
0.1666666666666785
100
AcDbArc
 50
180.0
 51
0.0
  0
ARC
  5
302
102
{ACAD_REACTORS
330
368
102
}
330
1F
100
AcDbEntity
  8
1
  6
Continuous
 62
     7
100
AcDbCircle
 10
-11.16184965562866
 20
7.07663469546833
 30
0.0
 40
0.1666666666666305
100
AcDbArc
 50
0.0
 51
180.0
  0
ARC
  5
303
102
{ACAD_REACTORS
330
366
102
}
330
1F
100
AcDbEntity
  8
1
  6
Continuous
 62
     7
100
AcDbCircle
 10
-9.32851632229534
 20
4.36567299683935
 30
0.0
 40
0.1666666666666837
100
AcDbArc
 50
240.0183606311504
 51
60.01836063114937
  0
ARC
  5
304
102
{ACAD_REACTORS
330
366
102
}
330
1F
100
AcDbEntity
  8
1
  6
Continuous
 62
     7
100
AcDbCircle
 10
-10.49518298896203
 20
7.46125008008369
 30
0.0
 40
0.1666666666666909
100
AcDbArc
 50
0.0
 51
180.0
  0
ARC
  5
305
102
{ACAD_REACTORS
330
367
102
}
330
1F
100
AcDbEntity
  8
1
  6
Continuous
 62
     7
100
AcDbCircle
 10
-8.460999428533
 20
7.86560865601728
 30
0.0
 40
0.1324831062376557
100
AcDbArc
 50
0.0
 51
149.9999999999743
  0
ARC
  5
306
102
{ACAD_REACTORS
330
367
102
}
330
1F
100
AcDbEntity
  8
1
  6
Continuous
 62
     7
100
AcDbCircle
 10
-8.49518298896197
 20
4.6541345353009
 30
0.0
 40
0.1666666666666856
100
AcDbArc
 50
180.0
 51
0.0
  0
ARC
  5
307
102
{ACAD_REACTORS
330
367
102
}
330
1F
100
AcDbEntity
  8
1
  6
Continuous
 62
     7
100
AcDbCircle
 10
-9.82851632229534
 20
5.42379253631645
 30
0.0
 40
0.1666666666666856
100
AcDbArc
 50
180.0
 51
0.0
  0
ARC
  5
308
102
{ACAD_REACTORS
330
367
102
}
330
1F
100
AcDbEntity
  8
1
  6
Continuous
 62
     7
100
AcDbCircle
 10
-9.86269988272437
 20
7.86560865601728
 30
0.0
 40
0.1324831062376642
100
AcDbArc
 50
30.00000000001384
 51
180.0
  0
ARC
  5
309
330
1F
100
AcDbEntity
  8
1
  6
Continuous
 62
     7
100
AcDbCircle
 10
-64.0327095258527
 20
31.87460670994246
 30
0.0
 40
5.601666666668519
100
AcDbArc
 50
240.0098417416598
 51
299.9901582583407
  0
ARC
  5
30A
330
1F
100
AcDbEntity
  8
1
  6
Continuous
 62
     7
100
AcDbCircle
 10
-19.4843761925211
 20
77.49294004327209
 30
0.0
 40
5.601666666668558
100
AcDbArc
 50
330.0098417416594
 51
29.99015825834061
  0
CIRCLE
  5
30B
330
1F
100
AcDbEntity
  8
0
  6
Continuous
 62
     7
100
AcDbCircle
 10
-67.4645114743188
 20
123.2411380948079
 30
0.0
 40
2.099999999999932
  0
CIRCLE
  5
30C
330
1F
100
AcDbEntity
  8
0
  6
Continuous
 62
     7
100
AcDbCircle
 10
-60.60090757738671
 20
123.2411380948078
 30
0.0
 40
2.099999999999962
  0
CIRCLE
  5
30D
330
1F
100
AcDbEntity
  8
0
  6
Continuous
 62
     7
100
AcDbCircle
 10
-70.86676055158371
 20
133.199832059663
 30
0.0
 40
2.100000000000029
  0
CIRCLE
  5
30E
330
1F
100
AcDbEntity
  8
0
  6
Continuous
 62
     7
100
AcDbCircle
 10
-60.58960878788092
 20
129.5938308775454
 30
0.0
 40
2.099999999999897
  0
CIRCLE
  5
30F
330
1F
100
AcDbEntity
  8
1
  6
Continuous
 62
     7
100
AcDbCircle
 10
-70.50853261759791
 20
129.7757580441783
 30
0.0
 40
0.8508717743530951
  0
CIRCLE
  5
310
330
1F
100
AcDbEntity
  8
1
  6
Continuous
 62
     4
100
AcDbCircle
 10
-65.93270952585262
 20
36.57294004327418
 30
0.0
 40
0.7521942587380863
  0
CIRCLE
  5
311
330
1F
100
AcDbEntity
  8
0
  6
Continuous
 62
     7
100
AcDbCircle
 10
-60.2827095258527
 20
35.22294004327319
 30
0.0
 40
1.0
  0
CIRCLE
  5
312
330
1F
100
AcDbEntity
  8
0
  6
Continuous
 62
     7
100
AcDbCircle
 10
-60.2827095258527
 20
35.22294004327319
 30
0.0
 40
1.5
  0
CIRCLE
  5
313
330
1F
100
AcDbEntity
  8
0
  6
Continuous
 62
     7
100
AcDbCircle
 10
-67.7827095258527
 20
42.2229400432733
 30
0.0
 40
1.500000000000085
  0
CIRCLE
  5
314
330
1F
100
AcDbEntity
  8
0
  6
Continuous
 62
     7
100
AcDbCircle
 10
-67.7827095258527
 20
42.2229400432733
 30
0.0
 40
1.0
  0
CIRCLE
  5
315
330
1F
100
AcDbEntity
  8
0
  6
Continuous
 62
     7
100
AcDbCircle
 10
-60.28270952585261
 20
42.2229400432733
 30
0.0
 40
1.499999999999971
  0
CIRCLE
  5
316
330
1F
100
AcDbEntity
  8
0
  6
Continuous
 62
     7
100
AcDbCircle
 10
-60.28270952585261
 20
42.2229400432733
 30
0.0
 40
1.0
  0
CIRCLE
  5
317
330
1F
100
AcDbEntity
  8
1
  6
Continuous
 62
     7
100
AcDbCircle
 10
-51.33248521979918
 20
4.4
 30
0.0
 40
1.24746823112261
  0
SPLINE
  5
318
330
1F
100
AcDbEntity
  8
0
  6
Continuous
 62
     7
100
AcDbSpline
210
0.0
220
0.0
230
1.0
 70
     8
 71
     3
 72
    11
 73
     7
 74
     5
 42
0.000000001
 43
0.0000000001
 44
0.00000001
 40
0.0
 40
0.0
 40
0.0
 40
0.0
 40
0.0989538740707953
 40
0.1989563870177947
 40
0.2925980500209558
 40
0.4027200256652489
 40
0.4027200256652489
 40
0.4027200256652489
 40
0.4027200256652489
 10
-62.0497957430717
 20
92.79294004327264
 30
0.0
 10
-62.04680601016269
 20
92.82581095646633
 30
0.0
 10
-62.04079484651405
 20
92.8919011224153
 30
0.0
 10
-62.02149334669595
 20
92.98765762179096
 30
0.0
 10
-61.99456411431953
 20
93.08542342931705
 30
0.0
 10
-61.96902491130605
 20
93.14842557791388
 30
0.0
 10
-61.95522250287409
 20
93.1824744424209
 30
0.0
 11
-62.0497957430717
 21
92.79294004327264
 31
0.0
 11
-62.03906694131157
 21
92.89131057796675
 31
0.0
 11
-62.01990220547832
 21
92.98945952434457
 31
0.0
 11
-61.99444637003484
 21
93.07957479297386
 31
0.0
 11
-61.95522250287409
 21
93.1824744424209
 31
0.0
  0
SPLINE
  5
319
330
1F
100
AcDbEntity
  8
0
  6
Continuous
 62
     7
100
AcDbSpline
210
0.0
220
0.0
230
1.0
 70
     8
 71
     3
 72
    17
 73
    13
 74
    11
 42
0.000000001
 43
0.0000000001
 44
0.00000001
 40
0.0
 40
0.0
 40
0.0
 40
0.0
 40
0.2142620075348675
 40
0.4430627269567664
 40
0.4913250614228321
 40
0.5470292068199702
 40
0.5981294808569603
 40
0.6568942582888314
 40
0.760862350721861
 40
0.8952617370714528
 40
0.9565087147699685
 40
1.018590907623973
 40
1.018590907623973
 40
1.018590907623973
 40
1.018590907623973
 10
-61.2042824011066
 20
93.79294004327267
 30
0.0
 10
-61.27585404561471
 20
93.78386993112036
 30
0.0
 10
-61.42385381342736
 20
93.76511424124968
 30
0.0
 10
-61.5662925989858
 20
93.67506769047469
 30
0.0
 10
-61.65251441336943
 20
93.60556124628036
 30
0.0
 10
-61.69095968516084
 20
93.57092404461758
 30
0.0
 10
-61.7300525920565
 20
93.53194961649376
 30
0.0
 10
-61.77790779830345
 20
93.47907869561034
 30
0.0
 10
-61.83892440779933
 20
93.40087851211567
 30
0.0
 10
-61.89177428460435
 20
93.31584787346132
 30
0.0
 10
-61.93097011854652
 20
93.2393403772509
 30
0.0
 10
-61.94710196293942
 20
93.20151514321365
 30
0.0
 10
-61.95522250287409
 20
93.1824744424209
 30
0.0
 11
-61.2042824011066
 21
93.79294004327267
 31
0.0
 11
-61.41442472454815
 21
93.75112602096628
 31
0.0
 11
-61.61281214558882
 21
93.63714268015914
 31
0.0
 11
-61.65033576946837
 21
93.60679089860925
 31
0.0
 11
-61.69175785955032
 21
93.56954627010938
 31
0.0
 11
-61.72795021243336
 21
93.53347201797006
 31
0.0
 11
-61.76740002166569
 21
93.48991732016222
 31
0.0
 11
-61.83136209342366
 21
93.40795258482704
 31
0.0
 11
-61.9024333221942
 21
93.2938820990365
 31
0.0
 11
-61.93019589203875
 21
93.23928876609551
 31
0.0
 11
-61.95522250287409
 21
93.1824744424209
 31
0.0
  0
SPLINE
  5
31A
330
1F
100
AcDbEntity
  8
0
  6
Continuous
 62
     7
100
AcDbSpline
210
0.0
220
0.0
230
1.0
 70
     8
 71
     3
 72
    11
 73
     7
 74
     5
 42
0.000000001
 43
0.0000000001
 44
0.00000001
 40
0.0
 40
0.0
 40
0.0
 40
0.0
 40
0.1027416662442087
 40
0.2037652418664566
 40
0.3037677550846577
 40
0.4027216289527443
 40
0.4027216289527443
 40
0.4027216289527443
 40
0.4027216289527443
 10
-66.11019654883141
 20
93.18247444242093
 30
0.0
 10
-66.09726887923259
 20
93.15073247686664
 30
0.0
 10
-66.07162973606943
 20
93.08777934338191
 30
0.0
 10
-66.04440611086505
 20
92.99007284495138
 30
0.0
 10
-66.02462581551362
 20
92.89190127071345
 30
0.0
 10
-66.01861357641603
 20
92.82581100567631
 30
0.0
 10
-66.01562330863392
 20
92.79294004327264
 30
0.0
 11
-66.11019654883141
 21
93.18247444242093
 31
0.0
 11
-66.07328921163487
 21
93.08659066626197
 31
0.0
 11
-66.04551684622702
 21
92.98945952434377
 31
0.0
 11
-66.02635211035594
 21
92.89131057771625
 31
0.0
 11
-66.01562330863392
 21
92.79294004327264
 31
0.0
  0
SPLINE
  5
31B
330
1F
100
AcDbEntity
  8
0
  6
Continuous
 62
     7
100
AcDbSpline
210
0.0
220
0.0
230
1.0
 70
     8
 71
     3
 72
    13
 73
     9
 74
     7
 42
0.000000001
 43
0.0000000001
 44
0.00000001
 40
0.0
 40
0.0
 40
0.0
 40
0.0
 40
0.0620821929420191
 40
0.1233291706321661
 40
0.3544615767934478
 40
0.5748500814574786
 40
0.8036508011251616
 40
1.017912808764763
 40
1.017912808764763
 40
1.017912808764763
 40
1.017912808764763
 10
-66.11019654883141
 20
93.18247444242093
 30
0.0
 10
-66.11831796914689
 20
93.2015162444738
 30
0.0
 10
-66.1344515623735
 20
93.23934366621486
 30
0.0
 10
-66.18833380314797
 20
93.34453546570795
 30
0.0
 10
-66.28532362774496
 20
93.48722228373114
 30
0.0
 10
-66.44940206845158
 20
93.64444382441165
 30
0.0
 10
-66.64152378261983
 20
93.76489736062584
 30
0.0
 10
-66.78955149316558
 20
93.78379923651818
 30
0.0
 10
-66.861136650599
 20
93.79294004327267
 30
0.0
 11
-66.11019654883141
 21
93.18247444242093
 31
0.0
 11
-66.13522315967879
 21
93.23928876612075
 31
0.0
 11
-66.16298572951122
 21
93.29388209903647
 31
0.0
 11
-66.29351159505364
 21
93.48463111904498
 31
0.0
 11
-66.45260690611671
 21
93.63714268015914
 31
0.0
 11
-66.65099432715678
 21
93.75112602096604
 31
0.0
 11
-66.861136650599
 21
93.79294004327267
 31
0.0
  0
ARC
  5
31C
102
{ACAD_REACTORS
330
35F
102
}
330
1F
100
AcDbEntity
  8
1
  6
Continuous
 62
     2
100
AcDbCircle
 10
-63.53270952585281
 20
126.7729400432739
 30
0.0
 40
0.050000000000037
100
AcDbArc
 50
210.0000000001147
 51
329.9999999998813
  0
ARC
  5
31D
102
{ACAD_REACTORS
330
35E
102
}
330
1F
100
AcDbEntity
  8
1
  6
Continuous
 62
     2
100
AcDbCircle
 10
-64.2327095258528
 20
126.0039463876836
 30
0.0
 40
0.2000000000000171
100
AcDbArc
 50
180.0
 51
240.01836063117
  0
ARC
  5
31E
330
1F
100
AcDbEntity
  8
1
  6
Continuous
 62
     2
100
AcDbCircle
 10
-66.0326539857207
 20
126.6729400432738
 30
0.0
 40
0.0500000000000785
100
AcDbArc
 50
119.9816393688325
 51
240.0183606310454
  0
ARC
  5
31F
330
1F
100
AcDbEntity
  8
1
  6
Continuous
 62
     2
100
AcDbCircle
 10
-61.03276506598472
 20
126.6729400432738
 30
0.0
 40
0.0499999999998975
100
AcDbArc
 50
299.9816393689616
 51
60.01836063116044
  0
ARC
  5
320
102
{ACAD_REACTORS
330
360
102
}
330
1F
100
AcDbEntity
  8
1
  6
Continuous
 62
     2
100
AcDbCircle
 10
-62.7327095258528
 20
127.3996900913241
 30
0.0
 40
0.0999999999999156
100
AcDbArc
 50
60.01836063116286
 51
180.0
  0
ARC
  5
321
102
{ACAD_REACTORS
330
360
102
}
330
1F
100
AcDbEntity
  8
1
  6
Continuous
 62
     2
100
AcDbCircle
 10
-62.7327095258528
 20
125.9461899952236
 30
0.0
 40
0.0999999999999091
100
AcDbArc
 50
180.0
 51
299.981639368833
  0
ARC
  5
322
330
1F
100
AcDbEntity
  8
1
  6
Continuous
 62
     7
100
AcDbCircle
 10
-65.44875435236692
 20
130.4744497332278
 30
0.0
 40
1.500000000000023
100
AcDbArc
 50
318.0000000000005
 51
48.00000000000214
  0
ARC
  5
323
330
1F
100
AcDbEntity
  8
1
  6
Continuous
 62
     7
100
AcDbCircle
 10
-67.92453759589462
 20
127.7248138789615
 30
0.0
 40
1.500000000000086
100
AcDbArc
 50
228.0000000000026
 51
318.0000000000005
  0
ARC
  5
324
330
1F
100
AcDbEntity
  8
1
  6
Continuous
 62
     7
100
AcDbCircle
 10
-62.2327095258528
 20
136.3486759745622
 30
0.0
 40
0.3000000000000597
100
AcDbArc
 50
135.0000000000048
 51
180.0
  0
ARC
  5
325
330
1F
100
AcDbEntity
  8
1
  6
Continuous
 62
     7
100
AcDbCircle
 10
-65.83270952585282
 20
136.3486759745622
 30
0.0
 40
0.3000000000000114
100
AcDbArc
 50
0.0
 51
44.99999999999616
  0
ARC
  5
326
102
{ACAD_REACTORS
330
365
102
}
330
1F
100
AcDbEntity
  8
1
  6
Continuous
 62
     7
100
AcDbCircle
 10
-7.82851632229534
 20
5.03874991991631
 30
0.0
 40
0.1666666666666252
100
AcDbArc
 50
180.0
 51
299.9816393688506
  0
ARC
  5
327
102
{ACAD_REACTORS
330
365
102
}
330
1F
100
AcDbEntity
  8
1
  6
Continuous
 62
     7
100
AcDbCircle
 10
-7.82851632229534
 20
7.46125008008369
 30
0.0
 40
0.1666666666666874
100
AcDbArc
 50
60.01836063114941
 51
180.0
  0
ARC
  5
328
330
1F
100
AcDbEntity
  8
1
  6
Continuous
 62
     7
100
AcDbCircle
 10
-4.99527555584871
 20
6.25
 30
0.0
 40
0.0833333333333293
100
AcDbArc
 50
299.9816393688334
 51
60.01836063114615
  0
ARC
  5
329
330
1F
100
AcDbEntity
  8
1
  6
Continuous
 62
     7
100
AcDbCircle
 10
-13.32842375540861
 20
6.25
 30
0.0
 40
0.0833333333333053
100
AcDbArc
 50
119.9816393688866
 51
240.0183606311338
  0
ARC
  5
32A
102
{ACAD_REACTORS
330
366
102
}
330
1F
100
AcDbEntity
  8
1
  6
Continuous
 62
     7
100
AcDbCircle
 10
-10.32851632229534
 20
5.13501057401635
 30
0.0
 40
0.3333333333333215
100
AcDbArc
 50
180.0000000000104
 51
240.0183606311564
  0
ARC
  5
32B
102
{ACAD_REACTORS
330
367
102
}
330
1F
100
AcDbEntity
  8
1
  6
Continuous
 62
     7
100
AcDbCircle
 10
-9.16184965562866
 20
6.41666666666663
 30
0.0
 40
0.0833333333333545
100
AcDbArc
 50
209.9999999999622
 51
330.0000000000177
  0
MTEXT
  5
32D
330
1F
100
AcDbEntity
  8
1
 62
     7
100
AcDbMText
 10
-57.80244495658691
 20
122.4225744613413
 30
0.0
 40
1.3
 41
0.0
 71
     5
 72
     1
  1
2
  7
CONVERTER_11
 73
     1
 44
1.32052821128451
  0
MTEXT
  5
32E
330
1F
100
AcDbEntity
  8
1
 62
     7
100
AcDbMText
 10
-57.82141837372122
 20
130.5095608011693
 30
0.0
 40
1.3
 41
0.0
 71
     5
 72
     1
  1
1
  7
CONVERTER_11
 73
     1
 44
0.84033613445378
  0
MTEXT
  5
32F
330
1F
100
AcDbEntity
  8
1
 62
     7
100
AcDbMText
 10
-70.2629740951186
 20
122.4225744613413
 30
0.0
 40
1.3
 41
0.0
 71
     5
 72
     1
  1
3
  7
CONVERTER_11
 73
     1
 44
1.32052821128451
  0
MTEXT
  5
330
330
1F
100
AcDbEntity
  8
1
 62
     4
100
AcDbMText
 10
-65.48270952585251
 20
39.6729400432742
 30
0.0
 40
1.3
 41
0.0
 71
     1
 72
     1
  1
3
  7
CONVERTER_11
 11
-1.0
 21
0.0
 31
0.0
 73
     1
 44
1.32052821128451
  0
MTEXT
  5
331
330
1F
100
AcDbEntity
  8
1
 62
     4
100
AcDbMText
 10
-62.38270952585252
 20
37.2729400432742
 30
0.0
 40
1.3
 41
0.0
 71
     9
 72
     1
  1
1
  7
CONVERTER_11
 11
-1.0
 21
0.0
 31
0.0
 73
     1
 44
0.84033613445378
  0
MTEXT
  5
332
330
1F
100
AcDbEntity
  8
1
 62
     4
100
AcDbMText
 10
-62.58270952585239
 20
39.6729400432742
 30
0.0
 40
1.3
 41
0.0
 71
     3
 72
     1
  1
2
  7
CONVERTER_11
 11
-1.0
 21
0.0
 31
0.0
 73
     1
 44
1.32052821128451
  0
MTEXT
  5
334
330
1F
100
AcDbEntity
  8
1
 62
     7
100
AcDbMText
 10
-20.16184965562865
 20
5.03031971037803
 30
0.0
 40
2.25
 41
0.0
 71
     5
 72
     1
  1
2:1
  7
CONVERTER_12
 73
     1
 44
1.32052821128451
  0
MTEXT
  5
335
330
1F
100
AcDbEntity
  8
1
 62
     7
100
AcDbMText
 10
-20.16184965562865
 20
8.13031971037799
 30
0.0
 40
1.5
 41
0.0
 71
     5
 72
     1
  1
Scale
  7
CONVERTER_12
 73
     1
 44
1.32052821128451
  0
MTEXT
  5
336
330
1F
100
AcDbEntity
  8
1
 62
     7
100
AcDbMText
 10
-76.36
 20
6.25
 30
0.0
 40
2.25
 41
0.0
 71
     4
 72
     1
  1
CKSF 03\Pfemale insert spring 3P+        10A 400V
  7
CONVERTER_12
 73
     1
 44
0.90036014405762
  0
MTEXT
  5
337
330
1F
100
AcDbEntity
  8
1
 62
     7
100
AcDbMText
 10
-93.50000000000004
 20
8.13031971037799
 30
0.0
 40
1.5
 41
0.0
 71
     4
 72
     1
  1
Date
  7
CONVERTER_12
 73
     1
 44
1.32052821128451
  0
MTEXT
  5
338
330
1F
100
AcDbEntity
  8
1
 62
     7
100
AcDbMText
 10
-88.20000000000006
 20
8.13031971037799
 30
0.0
 40
1.5
 41
0.0
 71
     4
 72
     1
  1
01/02/07
  7
CONVERTER_12
 73
     1
 44
1.32052821128451
  0
MTEXT
  5
339
330
1F
100
AcDbEntity
  8
1
 62
     7
100
AcDbMText
 10
-93.50000000000004
 20
4.375
 30
0.0
 40
1.5
 41
0.0
 71
     4
 72
     1
  1
Sign.
  7
CONVERTER_12
 73
     1
 44
1.32052821128451
  0
MTEXT
  5
33A
330
1F
100
AcDbEntity
  8
1
 62
     7
100
AcDbMText
 10
-88.20000000000006
 20
4.375
 30
0.0
 40
1.5
 41
0.0
 71
     4
 72
     1
  1
T.Tedeschi
  7
CONVERTER_12
 73
     1
 44
1.32052821128451
  0
MTEXT
  5
33B
330
1F
100
AcDbEntity
  8
1
 62
     7
100
AcDbMText
 10
-97.0000000000001
 20
75.74999999999994
 30
0.0
 40
2.0
 41
0.0
 71
     5
 72
     1
  1
Diritti riservati      All rights reserved
  7
CONVERTER_12
 11
0.0
 21
1.0
 31
0.0
 73
     1
 44
1.32052821128451
  0
DIMENSION
  5
346
330
1F
100
AcDbEntity
  8
1
100
AcDbDimension
  2
*D1
 10
-74.5327095258527
 20
100.994807995181
 30
0.0
 11
-64.0327095258527
 21
102.744807995181
 31
0.0
 70
    32
  1
<>
 71
     5
 42
-1.0
 53
0.00013888888889
  3
ME10_DIM_10
100
AcDbAlignedDimension
 13
-53.5327095258527
 23
82.49294004327263
 33
0.0
 14
-74.5327095258527
 24
82.49294004327282
 34
0.0
100
AcDbRotatedDimension
  0
DIMENSION
  5
351
330
1F
100
AcDbEntity
  8
1
100
AcDbDimension
  2
*D2
 10
-36.58270952585259
 20
100.994807995181
 30
0.0
 11
-26.08270952585259
 21
102.744807995181
 31
0.0
 70
    32
  1
<>
 71
     5
 42
-1.0
 53
0.00013888888889
  3
ME10_DIM_11
100
AcDbAlignedDimension
 13
-15.5827095258526
 23
82.49294004327254
 33
0.0
 14
-36.58270952585259
 24
82.49294004327305
 34
0.0
100
AcDbRotatedDimension
  0
DIMENSION
  5
35C
330
1F
100
AcDbEntity
  8
1
100
AcDbDimension
  2
*D3
 10
-83.3169502566728
 20
93.79294004327267
 30
0.0
 11
-85.1419502566728
 21
78.39294004327317
 31
0.0
 70
    32
  1
<>
 71
     5
 42
-1.0
 53
90.0
  3
ME10_DIM_12
100
AcDbAlignedDimension
 13
-74.5327095258527
 23
62.99294004327369
 33
0.0
 14
-69.53270952585281
 24
93.79294004327267
 34
0.0
 50
90.0
100
AcDbRotatedDimension
  0
HATCH
  5
35D
330
1F
100
AcDbEntity
  8
1
  6
Continuous
 62
     2
100
AcDbHatch
 10
0.0
 20
0.0
 30
0.0
210
0.0
220
0.0
230
1.0
  2
SOLID
 70
     1
 71
     1
 91
        1
 92
        1
 93
        4
 72
     1
 10
-64.63270952585272
 20
127.1689208605549
 11
-64.63270952585272
 21
126.1769592259928
 72
     2
 10
-64.7327095258528
 20
126.1769592259928
 40
0.0999999999999091
 50
0.0
 51
180.0
 73
     0
 72
     1
 10
-64.8327095258527
 20
126.1769592259928
 11
-64.8327095258527
 21
127.1689208605549
 72
     2
 10
-64.7327095258528
 20
127.1689208605549
 40
0.1000000000000796
 50
180.0
 51
360.0
 73
     0
 97
        4
330
58
330
2BF
330
59
330
2BE
 75
     0
 76
     1
 98
        1
 10
0.0
 20
0.0
  0
HATCH
  5
35E
330
1F
100
AcDbEntity
  8
1
  6
Continuous
 62
     2
100
AcDbHatch
 10
0.0
 20
0.0
 30
0.0
210
0.0
220
0.0
230
1.0
  2
SOLID
 70
     1
 71
     1
 91
        1
 92
        1
 93
        7
 72
     1
 10
-64.2327095258528
 20
127.3996900913241
 11
-64.2327095258528
 21
126.0039463876836
 72
     1
 10
-64.2327095258528
 20
126.0039463876836
 11
-63.58273728050371
 21
125.6289623999824
 72
     2
 10
-63.63270952585272
 20
125.5423438413775
 40
0.1000000000000977
 50
299.981639368865
 51
479.9816393689039
 73
     0
 72
     1
 10
-63.68268177120181
 20
125.4557252827726
 11
-64.33265401655062
 21
125.8307092704739
 72
     2
 10
-64.2327095258528
 20
126.0039463876836
 40
0.2000000000000171
 50
119.9816393688299
 51
180.0
 73
     0
 72
     1
 10
-64.43270952585281
 20
126.0039463876836
 11
-64.43270952585281
 21
127.3996900913241
 72
     2
 10
-64.3327095258527
 20
127.3996900913241
 40
0.0999999999999091
 50
180.0
 51
360.0
 73
     0
 97
        7
330
55
330
56
330
2BD
330
57
330
31D
330
54
330
2BC
 75
     0
 76
     1
 98
        1
 10
0.0
 20
0.0
  0
HATCH
  5
35F
330
1F
100
AcDbEntity
  8
1
  6
Continuous
 62
     2
100
AcDbHatch
 10
0.0
 20
0.0
 30
0.0
210
0.0
220
0.0
230
1.0
  2
SOLID
 70
     1
 71
     1
 91
        1
 92
        1
 93
       13
 72
     1
 10
-63.88437942076571
 20
127.6820501687555
 11
-63.53270952585281
 21
127.0729400432738
 72
     1
 10
-63.53270952585281
 20
127.0729400432738
 11
-63.18103963093982
 21
127.6820501687555
 72
     2
 10
-63.11219938959532
 20
127.6423052368843
 40
0.0794898637425092
 50
209.9999999999188
 51
360.0
 73
     0
 72
     1
 10
-63.03270952585281
 20
127.6423052368843
 11
-63.03270952585281
 21
125.7154207644544
 72
     2
 10
-63.13270952585272
 20
125.7154207644544
 40
0.1000000000000796
 50
0.0
 51
180.0
 73
     0
 72
     1
 10
-63.2327095258528
 20
125.7154207644544
 11
-63.2327095258528
 21
127.1925552855446
 72
     1
 10
-63.2327095258528
 20
127.1925552855446
 11
-63.48940825566361
 21
126.7479400432738
 72
     2
 10
-63.53270952585281
 20
126.7729400432739
 40
0.050000000000037
 50
30.00000000011874
 51
149.9999999998853
 73
     0
 72
     1
 10
-63.57601079604201
 20
126.7479400432738
 11
-63.83270952585282
 21
127.1925552855446
 72
     1
 10
-63.83270952585282
 20
127.1925552855446
 11
-63.83270952585271
 21
126.1772155650637
 72
     2
 10
-63.9327095258527
 20
126.1772155650637
 40
0.100000000000108
 50
0.0
 51
180.0
 73
     0
 72
     1
 10
-64.03270952585281
 20
126.1772155650637
 11
-64.03270952585281
 21
127.6423052368843
 72
     2
 10
-63.9532196621101
 20
127.6423052368843
 40
0.0794898637424921
 50
180.0
 51
330.0000000000402
 73
     0
 97
       13
330
51
330
53
330
2BB
330
52
330
2BA
330
48
330
49
330
31C
330
4A
330
4B
330
2B9
330
50
330
2B8
 75
     0
 76
     1
 98
        1
 10
0.0
 20
0.0
  0
HATCH
  5
360
330
1F
100
AcDbEntity
  8
1
  6
Continuous
 62
     2
100
AcDbHatch
 10
0.0
 20
0.0
 30
0.0
210
0.0
220
0.0
230
1.0
  2
SOLID
 70
     1
 71
     1
 91
        1
 92
        1
 93
       14
 72
     1
 10
-62.6827372805039
 20
127.4863086499289
 11
-62.28273728050381
 21
127.2555394191597
 72
     2
 10
-62.33270952585271
 20
127.1689208605549
 40
0.1000000000000106
 50
299.9816393688371
 51
479.981639368801
 73
     0
 72
     1
 10
-62.3826817712016
 20
127.08230230195
 11
-62.63270952585272
 21
127.2265490834795
 72
     1
 10
-62.63270952585272
 20
127.2265490834795
 11
-62.63270952585272
 21
126.7729400432739
 72
     1
 10
-62.63270952585272
 20
126.7729400432739
 11
-62.33270952585271
 21
126.7729400432739
 72
     2
 10
-62.33270952585271
 20
126.6729400432738
 40
0.0999999999999943
 50
270.0
 51
450.0
 73
     0
 72
     1
 10
-62.33270952585271
 20
126.5729400432738
 11
-62.63270952585272
 21
126.5729400432738
 72
     1
 10
-62.63270952585272
 20
126.5729400432738
 11
-62.63270952585272
 21
126.1193310030683
 72
     1
 10
-62.63270952585272
 20
126.1193310030683
 11
-62.3826817712016
 21
126.2635777845978
 72
     2
 10
-62.33270952585271
 20
126.1769592259928
 40
0.0999999999999156
 50
240.0183606312233
 51
420.0183606311629
 73
     0
 72
     1
 10
-62.28273728050381
 20
126.090340667388
 11
-62.6827372805039
 21
125.8595714366188
 72
     2
 10
-62.7327095258528
 20
125.9461899952236
 40
0.0999999999999091
 50
60.01836063116694
 51
180.0
 73
     0
 72
     1
 10
-62.83270952585271
 20
125.9461899952236
 11
-62.83270952585271
 21
127.3996900913241
 72
     2
 10
-62.7327095258528
 20
127.3996900913241
 40
0.0999999999999156
 50
180.0
 51
299.9816393688371
 73
     0
 97
       14
330
5A
330
2C0
330
5B
330
5C
330
5D
330
2C1
330
5E
330
5F
330
60
330
2C2
330
61
330
321
330
62
330
320
 75
     0
 76
     1
 98
        1
 10
0.0
 20
0.0
  0
HATCH
  5
361
330
1F
100
AcDbEntity
  8
1
  6
Continuous
 62
     2
100
AcDbHatch
 10
0.0
 20
0.0
 30
0.0
210
0.0
220
0.0
230
1.0
  2
SOLID
 70
     1
 71
     1
 91
        1
 92
        1
 93
        3
 72
     1
 10
-57.73712511358112
 20
121.5087264809008
 11
-58.903851302539
 21
121.5440818199602
 72
     1
 10
-58.903851302539
 20
121.5440818199602
 11
-58.86849596347962
 21
120.3773556310023
 72
     1
 10
-58.86849596347962
 20
120.3773556310023
 11
-57.73712511358112
 21
121.5087264809008
 97
        3
330
A2
330
A0
330
A1
 75
     0
 76
     1
 98
        1
 10
0.0
 20
0.0
  0
HATCH
  5
362
330
1F
100
AcDbEntity
  8
1
  6
Continuous
 62
     2
100
AcDbHatch
 10
0.0
 20
0.0
 30
0.0
210
0.0
220
0.0
230
1.0
  2
SOLID
 70
     1
 71
     1
 91
        1
 92
        1
 93
        3
 72
     1
 10
-69.19692308822592
 20
120.3773556310023
 11
-69.1615677491666
 21
121.5440818199602
 72
     1
 10
-69.1615677491666
 20
121.5440818199602
 11
-70.32829393812442
 21
121.5087264809008
 72
     1
 10
-70.32829393812442
 20
121.5087264809008
 11
-69.19692308822592
 21
120.3773556310023
 97
        3
330
A7
330
A9
330
A8
 75
     0
 76
     1
 98
        1
 10
0.0
 20
0.0
  0
HATCH
  5
363
330
1F
100
AcDbEntity
  8
1
  6
Continuous
 62
     2
100
AcDbHatch
 10
0.0
 20
0.0
 30
0.0
210
0.0
220
0.0
230
1.0
  2
SOLID
 70
     1
 71
     1
 91
        1
 92
        1
 93
        3
 72
     1
 10
-58.95819707897321
 20
132.5163290958577
 11
-58.95281272373101
 21
131.3490797614314
 72
     1
 10
-58.95281272373101
 20
131.3490797614314
 11
-57.7880311563825
 21
131.4251317197577
 72
     1
 10
-57.7880311563825
 20
131.4251317197577
 11
-58.95819707897321
 21
132.5163290958577
 97
        3
330
AA
330
AC
330
AB
 75
     0
 76
     1
 98
        1
 10
0.0
 20
0.0
  0
HATCH
  5
364
330
1F
100
AcDbEntity
  8
1
  6
Continuous
 62
     2
100
AcDbHatch
 10
0.0
 20
0.0
 30
0.0
210
0.0
220
0.0
230
1.0
  2
SOLID
 70
     1
 71
     1
 91
        1
 92
        1
 93
        3
 72
     1
 10
-67.91623538369511
 20
131.6196734493784
 11
-69.08321297043811
 21
131.5939186044016
 72
     1
 10
-69.08321297043811
 20
131.5939186044016
 11
-68.9868443538693
 21
130.4306417286146
 72
     1
 10
-68.9868443538693
 20
130.4306417286146
 11
-67.91623538369511
 21
131.6196734493784
 97
        3
330
AF
330
AD
330
AE
 75
     0
 76
     1
 98
        1
 10
0.0
 20
0.0
  0
HATCH
  5
365
330
1F
100
AcDbEntity
  8
1
  6
Continuous
 62
     7
100
AcDbHatch
 10
0.0
 20
0.0
 30
0.0
210
0.0
220
0.0
230
1.0
  2
SOLID
 70
     1
 71
     1
 91
        1
 92
        1
 93
       14
 72
     1
 10
-7.745229246713735
 20
7.605614344425135
 11
-7.078562580047105
 21
7.22099895980972
 72
     2
 10
-7.161849655628655
 20
7.07663469546833
 40
0.1666666666666886
 50
299.9816393688428
 51
479.9816393688507
 73
     0
 72
     1
 10
-7.245136731210265
 20
6.93227043112688
 11
-7.661849655628655
 21
7.17268173367597
 72
     1
 10
-7.661849655628655
 20
7.17268173367597
 11
-7.661849655628655
 21
6.41666666666663
 72
     1
 10
-7.661849655628655
 20
6.41666666666663
 11
-7.161849655628655
 21
6.41666666666663
 72
     2
 10
-7.161849655628655
 20
6.25
 40
0.1666666666666847
 50
270.0
 51
450.0
 73
     0
 72
     1
 10
-7.161849655628655
 20
6.083333333333315
 11
-7.661849655628655
 21
6.083333333333315
 72
     1
 10
-7.661849655628655
 20
6.083333333333315
 11
-7.661849655628655
 21
5.32731826632397
 72
     1
 10
-7.661849655628655
 20
5.32731826632397
 11
-7.245136731210265
 21
5.56772956887312
 72
     2
 10
-7.161849655628655
 20
5.423365304531615
 40
0.1666666666666572
 50
240.0183606311588
 51
420.0183606311674
 73
     0
 72
     1
 10
-7.078562580047105
 20
5.279001040190165
 11
-7.745229246713735
 21
4.894385655574865
 72
     2
 10
-7.828516322295345
 20
5.038749919916315
 40
0.1666666666666252
 50
60.01836063114943
 51
180.0
 73
     0
 72
     1
 10
-7.99518298896197
 20
5.038749919916315
 11
-7.99518298896197
 21
7.461250080083685
 72
     2
 10
-7.828516322295345
 20
7.461250080083685
 40
0.1666666666666874
 50
180.0
 51
299.9816393688506
 73
     0
 97
       14
330
289
330
300
330
288
330
287
330
286
330
2FF
330
285
330
284
330
283
330
2FE
330
282
330
326
330
281
330
327
 75
     0
 76
     1
 98
        1
 10
0.0
 20
0.0
  0
HATCH
  5
366
330
1F
100
AcDbEntity
  8
1
  6
Continuous
 62
     7
100
AcDbHatch
 10
0.0
 20
0.0
 30
0.0
210
0.0
220
0.0
230
1.0
  2
SOLID
 70
     1
 71
     1
 91
        1
 92
        1
 93
        7
 72
     1
 10
-10.32851632229534
 20
7.461250080083685
 11
-10.32851632229534
 21
5.13501057401635
 72
     1
 10
-10.32851632229534
 20
5.13501057401635
 11
-9.245229246713736
 21
4.510037261180798
 72
     2
 10
-9.328516322295345
 20
4.365672996839351
 40
0.1666666666666837
 50
299.9816393688506
 51
479.9816393688495
 73
     0
 72
     1
 10
-9.41180339787695
 20
4.221308732497903
 11
-10.49509047345851
 21
4.846282045333453
 72
     2
 10
-10.32851632229534
 20
5.13501057401635
 40
0.3333333333333215
 50
119.9816393688436
 51
179.9999999999896
 73
     0
 72
     1
 10
-10.66184965562866
 20
5.13501057401629
 11
-10.66184965562866
 21
7.461250080083685
 72
     2
 10
-10.49518298896203
 20
7.461250080083685
 40
0.1666666666666909
 50
180.0
 51
360.0
 73
     0
 97
        7
330
28F
330
28E
330
303
330
28D
330
32A
330
290
330
304
 75
     0
 76
     1
 98
        1
 10
0.0
 20
0.0
  0
HATCH
  5
367
330
1F
100
AcDbEntity
  8
1
  6
Continuous
 62
     7
100
AcDbHatch
 10
0.0
 20
0.0
 30
0.0
210
0.0
220
0.0
230
1.0
  2
SOLID
 70
     1
 71
     1
 91
        1
 92
        1
 93
       16
 72
     2
 10
-9.86269988272437
 20
7.865608656017285
 40
0.1324831062376642
 50
30.00000000001384
 51
180.0
 73
     1
 72
     1
 10
-9.99518298896203
 20
7.865608656017285
 11
-9.99518298896203
 21
6.25
 72
     1
 10
-9.99518298896203
 20
6.25
 11
-9.99518298896203
 21
5.423792536316455
 72
     2
 10
-9.828516322295345
 20
5.423792536316455
 40
0.1666666666666856
 50
180.0
 51
360.0
 73
     1
 72
     1
 10
-9.661849655628655
 20
5.423792536316455
 11
-9.661849655628655
 21
6.25
 72
     1
 10
-9.661849655628655
 20
6.25
 11
-9.661849655628655
 21
7.11602540378442
 72
     1
 10
-9.661849655628655
 20
7.11602540378442
 11
-9.234018439277405
 21
6.375
 72
     2
 10
-9.161849655628655
 20
6.41666666666663
 40
0.0833333333333545
 50
209.9999999999622
 51
330.0000000000177
 73
     1
 72
     1
 10
-9.089680871979965
 20
6.375
 11
-8.661849655628655
 21
7.11602540378442
 72
     1
 10
-8.661849655628655
 20
7.11602540378442
 11
-8.661849655628655
 21
6.25
 72
     1
 10
-8.661849655628655
 20
6.25
 11
-8.661849655628655
 21
4.654134535300898
 72
     2
 10
-8.49518298896197
 20
4.654134535300898
 40
0.1666666666666856
 50
180.0
 51
360.0
 73
     1
 72
     1
 10
-8.328516322295345
 20
4.654134535300898
 11
-8.328516322295345
 21
7.865608656017285
 72
     2
 10
-8.460999428533
 20
7.865608656017285
 40
0.1324831062376557
 50
0.0
 51
149.9999999999743
 73
     1
 72
     1
 10
-8.57573316410702
 20
7.931850209136145
 11
-9.161849655628655
 21
6.91666666666663
 72
     1
 10
-9.161849655628655
 20
6.91666666666663
 11
-9.747966147150295
 21
7.931850209136145
 97
       16
330
291
330
305
330
292
330
306
330
293
330
29F
330
29E
330
32B
330
29D
330
29C
330
294
330
307
330
295
330
297
330
308
330
296
 75
     0
 76
     1
 98
        1
 10
0.0
 20
0.0
  0
HATCH
  5
368
330
1F
100
AcDbEntity
  8
1
  6
Continuous
 62
     7
100
AcDbHatch
 10
0.0
 20
0.0
 30
0.0
210
0.0
220
0.0
230
1.0
  2
SOLID
 70
     1
 71
     1
 91
        1
 92
        1
 93
        5
 72
     1
 10
-10.99518298896203
 20
7.07663469546833
 11
-10.99518298896203
 21
5.51962595863165
 72
     1
 10
-10.99518298896203
 20
5.51962595863165
 11
-10.99518298896203
 21
5.423365304531615
 72
     2
 10
-11.16184965562866
 20
5.423365304531615
 40
0.1666666666666785
 50
0.0
 51
180.0
 73
     0
 72
     1
 10
-11.32851632229534
 20
5.423365304531615
 11
-11.32851632229534
 21
7.07663469546833
 72
     2
 10
-11.16184965562866
 20
7.07663469546833
 40
0.1666666666666305
 50
180.0
 51
360.0
 73
     0
 97
        5
330
28C
330
28B
330
301
330
28A
330
302
 75
     0
 76
     1
 98
        1
 10
0.0
 20
0.0
  0
ENDSEC
  0
SECTION
  2
OBJECTS
  0
DICTIONARY
  5
C
330
0
100
AcDbDictionary
281
     1
  3
ACAD_GROUP
350
D
  3
ACAD_LAYOUT
350
1A
  3
ACAD_MATERIAL
350
3B
  3
ACAD_MLEADERSTYLE
350
36B
  3
ACAD_MLINESTYLE
350
17
  3
ACAD_PLOTSETTINGS
350
19
  3
ACAD_PLOTSTYLENAME
350
E
  3
ACAD_VISUALSTYLE
350
2A
  3
AcDbVariableDictionary
350
369
  0
DICTIONARY
  5
D
102
{ACAD_REACTORS
330
C
102
}
330
C
100
AcDbDictionary
281
     1
  0
DICTIONARY
  5
1A
102
{ACAD_REACTORS
330
C
102
}
330
C
100
AcDbDictionary
281
     1
  3
Layout1
350
1E
  3
Layout2
350
26
  3
Model
350
22
  0
DICTIONARY
  5
3B
102
{ACAD_REACTORS
330
C
102
}
330
C
100
AcDbDictionary
281
     1
  3
ByBlock
350
3D
  3
ByLayer
350
3C
  3
Global
350
3E
  0
DICTIONARY
  5
36B
102
{ACAD_REACTORS
330
C
102
}
330
C
100
AcDbDictionary
281
     1
  0
DICTIONARY
  5
17
102
{ACAD_REACTORS
330
C
102
}
330
C
100
AcDbDictionary
281
     1
  3
Standard
350
18
  0
DICTIONARY
  5
19
102
{ACAD_REACTORS
330
C
102
}
330
C
100
AcDbDictionary
281
     1
  0
ACDBDICTIONARYWDFLT
  5
E
102
{ACAD_REACTORS
330
C
102
}
330
C
100
AcDbDictionary
281
     1
  3
Normal
350
F
100
AcDbDictionaryWithDefault
340
F
  0
DICTIONARY
  5
2A
102
{ACAD_REACTORS
330
C
102
}
330
C
100
AcDbDictionary
281
     1
  3
2dWireframe
350
2F
  3
3D Hidden
350
31
  3
3dWireframe
350
30
  3
Basic
350
32
  3
Brighten
350
36
  3
ColorChange
350
3A
  3
Conceptual
350
34
  3
Dim
350
35
  3
Facepattern
350
39
  3
Flat
350
2B
  3
FlatWithEdges
350
2C
  3
Gouraud
350
2D
  3
GouraudWithEdges
350
2E
  3
Linepattern
350
38
  3
Realistic
350
33
  3
Thicken
350
37
  0
DICTIONARY
  5
369
102
{ACAD_REACTORS
330
C
102
}
330
C
100
AcDbDictionary
281
     1
  3
DIMASSOC
350
36C
  3
HIDETEXT
350
36D
  0
LAYOUT
  5
1E
102
{ACAD_REACTORS
330
1A
102
}
330
1A
100
AcDbPlotSettings
  1

  2
none_device
  4

  6

 40
0.0
 41
0.0
 42
0.0
 43
0.0
 44
0.0
 45
0.0
 46
0.0
 47
0.0
 48
0.0
 49
0.0
140
0.0
141
0.0
142
1.0
143
1.0
 70
   688
 72
     0
 73
     0
 74
     5
  7

 75
    16
147
1.0
148
0.0
149
0.0
100
AcDbLayout
  1
Layout1
 70
     1
 71
     1
 10
0.0
 20
0.0
 11
12.0
 21
9.0
 12
0.0
 22
0.0
 32
0.0
 14
1.00000000000000E+20
 24
1.00000000000000E+20
 34
1.00000000000000E+20
 15
-1.00000000000000E+20
 25
-1.00000000000000E+20
 35
-1.00000000000000E+20
146
0.0
 13
0.0
 23
0.0
 33
0.0
 16
1.0
 26
0.0
 36
0.0
 17
0.0
 27
1.0
 37
0.0
 76
     0
330
1B
  0
LAYOUT
  5
26
102
{ACAD_REACTORS
330
1A
102
}
330
1A
100
AcDbPlotSettings
  1

  2
none_device
  4

  6

 40
0.0
 41
0.0
 42
0.0
 43
0.0
 44
0.0
 45
0.0
 46
0.0
 47
0.0
 48
0.0
 49
0.0
140
0.0
141
0.0
142
1.0
143
1.0
 70
   688
 72
     0
 73
     0
 74
     5
  7

 75
    16
147
1.0
148
0.0
149
0.0
100
AcDbLayout
  1
Layout2
 70
     1
 71
     2
 10
0.0
 20
0.0
 11
0.0
 21
0.0
 12
0.0
 22
0.0
 32
0.0
 14
0.0
 24
0.0
 34
0.0
 15
0.0
 25
0.0
 35
0.0
146
0.0
 13
0.0
 23
0.0
 33
0.0
 16
1.0
 26
0.0
 36
0.0
 17
0.0
 27
1.0
 37
0.0
 76
     0
330
23
  0
LAYOUT
  5
22
102
{ACAD_REACTORS
330
1A
102
}
330
1A
100
AcDbPlotSettings
  1

  2
none_device
  4

  6

 40
0.0
 41
0.0
 42
0.0
 43
0.0
 44
0.0
 45
0.0
 46
0.0
 47
0.0
 48
0.0
 49
0.0
140
0.0
141
0.0
142
1.0
143
1.0
 70
  1712
 72
     0
 73
     0
 74
     0
  7

 75
     0
147
1.0
148
0.0
149
0.0
100
AcDbLayout
  1
Model
 70
     1
 71
     0
 10
0.0
 20
0.0
 11
12.0
 21
9.0
 12
0.0
 22
0.0
 32
0.0
 14
-105.0000000000001
 24
0.0
 34
0.0
 15
0.0
 25
148.5000000000001
 35
0.0
146
0.0
 13
0.0
 23
0.0
 33
0.0
 16
1.0
 26
0.0
 36
0.0
 17
0.0
 27
1.0
 37
0.0
 76
     0
330
1F
331
29
  0
MATERIAL
  5
3D
102
{ACAD_REACTORS
330
3B
102
}
102
{ACAD_XDICTIONARY
360
390
102
}
330
3B
100
AcDbMaterial
  1
ByBlock
  0
MATERIAL
  5
3C
102
{ACAD_REACTORS
330
3B
102
}
102
{ACAD_XDICTIONARY
360
38E
102
}
330
3B
100
AcDbMaterial
  1
ByLayer
  0
MATERIAL
  5
3E
102
{ACAD_REACTORS
330
3B
102
}
102
{ACAD_XDICTIONARY
360
392
102
}
330
3B
100
AcDbMaterial
  1
Global
  0
MLINESTYLE
  5
18
102
{ACAD_REACTORS
330
17
102
}
330
17
100
AcDbMlineStyle
  2
Standard
 70
     0
  3

 62
   256
 51
90.0
 52
90.0
 71
     2
 49
0.5
 62
   256
  6
BYLAYER
 49
-0.5
 62
   256
  6
BYLAYER
  0
ACDBPLACEHOLDER
  5
F
102
{ACAD_REACTORS
330
E
102
}
330
E
  0
VISUALSTYLE
  5
2F
102
{ACAD_REACTORS
330
2A
102
}
102
{ACAD_XDICTIONARY
360
376
102
}
330
2A
100
AcDbVisualStyle
  2
2dWireframe
 70
     4
 71
     0
 72
     2
 73
     0
 90
        0
 40
-0.6
 41
-30.0
 62
     5
 63
     7
 74
     1
 91
        4
 64
     7
 65
   257
 75
     1
175
     1
 42
1.0
 92
        0
 66
   257
 43
1.0
 76
     1
 77
     6
 78
     2
 67
     7
 79
     5
170
     0
171
     0
290
     0
174
     0
 93
        1
 44
0.0
173
     0
291
     0
 45
0.0
1001
ACAD
1000
AcDbSavedByObjectVersion
1070
     0
  0
VISUALSTYLE
  5
31
102
{ACAD_REACTORS
330
2A
102
}
102
{ACAD_XDICTIONARY
360
37A
102
}
330
2A
100
AcDbVisualStyle
  2
3D Hidden
 70
     6
 71
     1
 72
     2
 73
     2
 90
        0
 40
-0.6
 41
-30.0
 62
     5
 63
     7
 74
     2
 91
        2
 64
     7
 65
   257
 75
     2
175
     1
 42
40.0
 92
        0
 66
   257
 43
1.0
 76
     1
 77
     6
 78
     2
 67
     7
 79
     3
170
     0
171
     0
290
     0
174
     0
 93
        1
 44
0.0
173
     0
291
     0
 45
0.0
1001
ACAD
1000
AcDbSavedByObjectVersion
1070
     0
  0
VISUALSTYLE
  5
30
102
{ACAD_REACTORS
330
2A
102
}
102
{ACAD_XDICTIONARY
360
378
102
}
330
2A
100
AcDbVisualStyle
  2
3dWireframe
 70
     5
 71
     0
 72
     2
 73
     0
 90
        0
 40
-0.6
 41
-30.0
 62
     5
 63
     7
 74
     1
 91
        4
 64
     7
 65
   257
 75
     1
175
     1
 42
1.0
 92
        0
 66
   257
 43
1.0
 76
     1
 77
     6
 78
     2
 67
     7
 79
     5
170
     0
171
     0
290
     0
174
     0
 93
        1
 44
0.0
173
     0
291
     0
 45
0.0
1001
ACAD
1000
AcDbSavedByObjectVersion
1070
     0
  0
VISUALSTYLE
  5
32
102
{ACAD_REACTORS
330
2A
102
}
102
{ACAD_XDICTIONARY
360
37C
102
}
330
2A
100
AcDbVisualStyle
  2
Basic
 70
     7
 71
     1
 72
     0
 73
     1
 90
        0
 40
-0.6
 41
-30.0
 62
     5
 63
     7
 74
     0
 91
        4
 64
     7
 65
   257
 75
     1
175
     1
 42
1.0
 92
        8
 66
     7
 43
1.0
 76
     1
 77
     6
 78
     2
 67
     7
 79
     5
170
     0
171
     0
290
     0
174
     0
 93
        1
 44
0.0
173
     0
291
     1
 45
0.0
1001
ACAD
1000
AcDbSavedByObjectVersion
1070
     0
  0
VISUALSTYLE
  5
36
102
{ACAD_REACTORS
330
2A
102
}
102
{ACAD_XDICTIONARY
360
384
102
}
330
2A
100
AcDbVisualStyle
  2
Brighten
 70
    12
 71
     2
 72
     2
 73
     0
 90
        0
 40
-0.6
 41
-30.0
 62
     5
 63
     7
 74
     1
 91
        4
 64
     7
 65
   257
 75
     1
175
     1
 42
1.0
 92
        8
 66
     7
 43
1.0
 76
     1
 77
     6
 78
     2
 67
     7
 79
     5
170
     0
171
     0
290
     0
174
     0
 93
        1
 44
50.0
173
     0
291
     1
 45
0.0
1001
ACAD
1000
AcDbSavedByObjectVersion
1070
     0
  0
VISUALSTYLE
  5
3A
102
{ACAD_REACTORS
330
2A
102
}
102
{ACAD_XDICTIONARY
360
38C
102
}
330
2A
100
AcDbVisualStyle
  2
ColorChange
 70
    16
 71
     2
 72
     2
 73
     3
 90
        0
 40
-0.6
 41
-30.0
 62
     5
 63
     8
 74
     1
 91
        4
 64
     7
 65
   257
 75
     1
175
     1
 42
1.0
 92
        8
 66
     8
 43
1.0
 76
     1
 77
     6
 78
     2
 67
     7
 79
     5
170
     0
171
     0
290
     0
174
     0
 93
        1
 44
0.0
173
     0
291
     1
 45
0.0
1001
ACAD
1000
AcDbSavedByObjectVersion
1070
     0
  0
VISUALSTYLE
  5
34
102
{ACAD_REACTORS
330
2A
102
}
102
{ACAD_XDICTIONARY
360
380
102
}
330
2A
100
AcDbVisualStyle
  2
Conceptual
 70
     9
 71
     3
 72
     2
 73
     0
 90
        0
 40
-0.6
 41
-30.0
 62
     5
 63
     7
 74
     2
 91
        2
 64
     7
 65
   257
 75
     1
175
     1
 42
40.0
 92
        8
 66
     7
 43
1.0
 76
     1
 77
     6
 78
     2
 67
     7
 79
     3
170
     0
171
     0
290
     0
174
     0
 93
        1
 44
0.0
173
     0
291
     0
 45
0.0
1001
ACAD
1000
AcDbSavedByObjectVersion
1070
     0
  0
VISUALSTYLE
  5
35
102
{ACAD_REACTORS
330
2A
102
}
102
{ACAD_XDICTIONARY
360
382
102
}
330
2A
100
AcDbVisualStyle
  2
Dim
 70
    11
 71
     2
 72
     2
 73
     0
 90
        0
 40
-0.6
 41
-30.0
 62
     5
 63
     7
 74
     1
 91
        4
 64
     7
 65
   257
 75
     1
175
     1
 42
1.0
 92
        8
 66
     7
 43
1.0
 76
     1
 77
     6
 78
     2
 67
     7
 79
     5
170
     0
171
     0
290
     0
174
     0
 93
        1
 44
-50.0
173
     0
291
     1
 45
0.0
1001
ACAD
1000
AcDbSavedByObjectVersion
1070
     0
  0
VISUALSTYLE
  5
39
102
{ACAD_REACTORS
330
2A
102
}
102
{ACAD_XDICTIONARY
360
38A
102
}
330
2A
100
AcDbVisualStyle
  2
Facepattern
 70
    15
 71
     2
 72
     2
 73
     0
 90
        0
 40
-0.6
 41
-30.0
 62
     5
 63
     7
 74
     1
 91
        4
 64
     7
 65
   257
 75
     1
175
     1
 42
1.0
 92
        8
 66
     7
 43
1.0
 76
     1
 77
     6
 78
     2
 67
     7
 79
     5
170
     0
171
     0
290
     0
174
     0
 93
        1
 44
0.0
173
     0
291
     1
 45
0.0
1001
ACAD
1000
AcDbSavedByObjectVersion
1070
     0
  0
VISUALSTYLE
  5
2B
102
{ACAD_REACTORS
330
2A
102
}
102
{ACAD_XDICTIONARY
360
36E
102
}
330
2A
100
AcDbVisualStyle
  2
Flat
 70
     0
 71
     2
 72
     1
 73
     1
 90
        2
 40
-0.6
 41
30.0
 62
     5
 63
     7
 74
     0
 91
        4
 64
     7
 65
   257
 75
     1
175
     1
 42
1.0
 92
        8
 66
     7
 43
1.0
 76
     1
 77
     6
 78
     2
 67
     7
 79
     5
170
     0
171
     0
290
     0
174
     0
 93
       13
 44
0.0
173
     0
291
     1
 45
0.0
1001
ACAD
1000
AcDbSavedByObjectVersion
1070
     0
  0
VISUALSTYLE
  5
2C
102
{ACAD_REACTORS
330
2A
102
}
102
{ACAD_XDICTIONARY
360
370
102
}
330
2A
100
AcDbVisualStyle
  2
FlatWithEdges
 70
     1
 71
     2
 72
     1
 73
     1
 90
        2
 40
-0.6
 41
30.0
 62
     5
 63
     7
 74
     1
 91
        4
 64
     7
 65
   257
 75
     1
175
     1
 42
1.0
 92
        0
 66
   257
 43
1.0
 76
     1
 77
     6
 78
     2
 67
     7
 79
     5
170
     0
171
     0
290
     0
174
     0
 93
       13
 44
0.0
173
     0
291
     1
 45
0.0
1001
ACAD
1000
AcDbSavedByObjectVersion
1070
     0
  0
VISUALSTYLE
  5
2D
102
{ACAD_REACTORS
330
2A
102
}
102
{ACAD_XDICTIONARY
360
372
102
}
330
2A
100
AcDbVisualStyle
  2
Gouraud
 70
     2
 71
     2
 72
     2
 73
     1
 90
        2
 40
-0.6
 41
30.0
 62
     5
 63
     7
 74
     0
 91
        4
 64
     7
 65
   257
 75
     1
175
     1
 42
1.0
 92
        0
 66
     7
 43
1.0
 76
     1
 77
     6
 78
     2
 67
     7
 79
     5
170
     0
171
     0
290
     0
174
     0
 93
       13
 44
0.0
173
     0
291
     1
 45
0.0
1001
ACAD
1000
AcDbSavedByObjectVersion
1070
     0
  0
VISUALSTYLE
  5
2E
102
{ACAD_REACTORS
330
2A
102
}
102
{ACAD_XDICTIONARY
360
374
102
}
330
2A
100
AcDbVisualStyle
  2
GouraudWithEdges
 70
     3
 71
     2
 72
     2
 73
     1
 90
        2
 40
-0.6
 41
30.0
 62
     5
 63
     7
 74
     1
 91
        4
 64
     7
 65
   257
 75
     1
175
     1
 42
1.0
 92
        0
 66
   257
 43
1.0
 76
     1
 77
     6
 78
     2
 67
     7
 79
     5
170
     0
171
     0
290
     0
174
     0
 93
       13
 44
0.0
173
     0
291
     1
 45
0.0
1001
ACAD
1000
AcDbSavedByObjectVersion
1070
     0
  0
VISUALSTYLE
  5
38
102
{ACAD_REACTORS
330
2A
102
}
102
{ACAD_XDICTIONARY
360
388
102
}
330
2A
100
AcDbVisualStyle
  2
Linepattern
 70
    14
 71
     2
 72
     2
 73
     0
 90
        0
 40
-0.6
 41
-30.0
 62
     5
 63
     7
 74
     1
 91
        4
 64
     7
 65
   257
 75
     7
175
     7
 42
1.0
 92
        8
 66
     7
 43
1.0
 76
     1
 77
     6
 78
     2
 67
     7
 79
     5
170
     0
171
     0
290
     0
174
     0
 93
        1
 44
0.0
173
     0
291
     1
 45
0.0
1001
ACAD
1000
AcDbSavedByObjectVersion
1070
     0
  0
VISUALSTYLE
  5
33
102
{ACAD_REACTORS
330
2A
102
}
102
{ACAD_XDICTIONARY
360
37E
102
}
330
2A
100
AcDbVisualStyle
  2
Realistic
 70
     8
 71
     2
 72
     2
 73
     0
 90
        0
 40
-0.6
 41
-30.0
 62
     5
 63
     7
 74
     1
 91
        0
 64
     7
 65
   257
 75
     1
175
     1
 42
1.0
 92
        8
 66
     8
 43
1.0
 76
     1
 77
     6
 78
     2
 67
     7
 79
     5
170
     0
171
     0
290
     0
174
     0
 93
       13
 44
0.0
173
     0
291
     0
 45
0.0
1001
ACAD
1000
AcDbSavedByObjectVersion
1070
     0
  0
VISUALSTYLE
  5
37
102
{ACAD_REACTORS
330
2A
102
}
102
{ACAD_XDICTIONARY
360
386
102
}
330
2A
100
AcDbVisualStyle
  2
Thicken
 70
    13
 71
     2
 72
     2
 73
     0
 90
        0
 40
-0.6
 41
-30.0
 62
     5
 63
     7
 74
     1
 91
        4
 64
     7
 65
   257
 75
     1
175
     1
 42
1.0
 92
       12
 66
     7
 43
1.0
 76
     1
 77
     6
 78
     2
 67
     7
 79
     5
170
     0
171
     0
290
     0
174
     0
 93
        1
 44
0.0
173
     0
291
     1
 45
0.0
1001
ACAD
1000
AcDbSavedByObjectVersion
1070
     0
  0
DICTIONARYVAR
  5
36C
102
{ACAD_REACTORS
330
369
102
}
330
369
100
DictionaryVariables
280
     0
  1
2
  0
DICTIONARYVAR
  5
36D
102
{ACAD_REACTORS
330
369
102
}
330
369
100
DictionaryVariables
280
     0
  1
1
  0
DICTIONARY
  5
390
330
3D
100
AcDbDictionary
280
     1
281
     1
  3
ACAD_XREC_ROUNDTRIP
360
391
  0
DICTIONARY
  5
38E
330
3C
100
AcDbDictionary
280
     1
281
     1
  3
ACAD_XREC_ROUNDTRIP
360
38F
  0
DICTIONARY
  5
392
330
3E
100
AcDbDictionary
280
     1
281
     1
  3
ACAD_XREC_ROUNDTRIP
360
393
  0
DICTIONARY
  5
376
330
2F
100
AcDbDictionary
280
     1
281
     1
  3
ACAD_XREC_ROUNDTRIP
360
377
  0
DICTIONARY
  5
37A
330
31
100
AcDbDictionary
280
     1
281
     1
  3
ACAD_XREC_ROUNDTRIP
360
37B
  0
DICTIONARY
  5
378
330
30
100
AcDbDictionary
280
     1
281
     1
  3
ACAD_XREC_ROUNDTRIP
360
379
  0
DICTIONARY
  5
37C
330
32
100
AcDbDictionary
280
     1
281
     1
  3
ACAD_XREC_ROUNDTRIP
360
37D
  0
DICTIONARY
  5
384
330
36
100
AcDbDictionary
280
     1
281
     1
  3
ACAD_XREC_ROUNDTRIP
360
385
  0
DICTIONARY
  5
38C
330
3A
100
AcDbDictionary
280
     1
281
     1
  3
ACAD_XREC_ROUNDTRIP
360
38D
  0
DICTIONARY
  5
380
330
34
100
AcDbDictionary
280
     1
281
     1
  3
ACAD_XREC_ROUNDTRIP
360
381
  0
DICTIONARY
  5
382
330
35
100
AcDbDictionary
280
     1
281
     1
  3
ACAD_XREC_ROUNDTRIP
360
383
  0
DICTIONARY
  5
38A
330
39
100
AcDbDictionary
280
     1
281
     1
  3
ACAD_XREC_ROUNDTRIP
360
38B
  0
DICTIONARY
  5
36E
330
2B
100
AcDbDictionary
280
     1
281
     1
  3
ACAD_XREC_ROUNDTRIP
360
36F
  0
DICTIONARY
  5
370
330
2C
100
AcDbDictionary
280
     1
281
     1
  3
ACAD_XREC_ROUNDTRIP
360
371
  0
DICTIONARY
  5
372
330
2D
100
AcDbDictionary
280
     1
281
     1
  3
ACAD_XREC_ROUNDTRIP
360
373
  0
DICTIONARY
  5
374
330
2E
100
AcDbDictionary
280
     1
281
     1
  3
ACAD_XREC_ROUNDTRIP
360
375
  0
DICTIONARY
  5
388
330
38
100
AcDbDictionary
280
     1
281
     1
  3
ACAD_XREC_ROUNDTRIP
360
389
  0
DICTIONARY
  5
37E
330
33
100
AcDbDictionary
280
     1
281
     1
  3
ACAD_XREC_ROUNDTRIP
360
37F
  0
DICTIONARY
  5
386
330
37
100
AcDbDictionary
280
     1
281
     1
  3
ACAD_XREC_ROUNDTRIP
360
387
  0
XRECORD
  5
391
102
{ACAD_REACTORS
330
390
102
}
330
390
100
AcDbXrecord
280
     1
102
MATERIAL
148
0.0
149
0.0
149
0.0
 93
        0
 94
      127
282
     0
 72
     1
 77
     1
171
     1
175
     1
179
     1
273
     0
  0
XRECORD
  5
38F
102
{ACAD_REACTORS
330
38E
102
}
330
38E
100
AcDbXrecord
280
     1
102
MATERIAL
148
0.0
149
0.0
149
0.0
 93
        0
 94
      127
282
     0
 72
     1
 77
     1
171
     1
175
     1
179
     1
273
     0
  0
XRECORD
  5
393
102
{ACAD_REACTORS
330
392
102
}
330
392
100
AcDbXrecord
280
     1
102
MATERIAL
148
0.0
149
0.0
149
0.0
 93
        0
 94
      127
282
     0
 72
     1
 77
     1
171
     1
175
     1
179
     1
273
     0
  0
XRECORD
  5
377
102
{ACAD_REACTORS
330
376
102
}
330
376
100
AcDbXrecord
280
     1
102
RTVSPropertyOp0
 70
     1
102
RTVSPropertyOp1
 70
     1
102
RTVSPropertyOp2
 70
     1
102
RTVSPropertyOp3
 70
     1
102
RTVSPropertyOp4
 70
     1
102
RTVSPropertyOp5
 70
     1
102
RTVSPropertyOp6
 70
     1
102
RTVSPropertyOp7
 70
     1
102
RTVSPropertyOp8
 70
     1
102
RTVSPropertyOp9
 70
     1
102
RTVSPropertyOp10
 70
     1
102
RTVSPropertyOp11
 70
     1
102
RTVSPropertyOp12
 70
     1
102
RTVSPropertyOp13
 70
     1
102
RTVSPropertyOp14
 70
     1
102
RTVSPropertyOp15
 70
     1
102
RTVSPropertyOp16
 70
     1
102
RTVSPropertyOp17
 70
     1
102
RTVSPropertyOp18
 70
     1
102
RTVSPropertyOp19
 70
     1
102
RTVSPropertyOp20
 70
     1
102
RTVSPropertyOp21
 70
     1
102
RTVSPropertyOp22
 70
     1
102
RTVSPropertyOp23
 70
     1
102
RTVSPropertyOp24
 70
     1
102
RTVSPropertyOp25
 70
     1
102
RTVSPropertyOp26
 70
     1
102
RTVSPropertyOp27
 70
     1
102
RTVSPropertyOp28
 70
     1
102
RTVSPropertyOp29
 70
     1
102
RTVSPropertyOp30
 70
     1
102
RTVSPropertyOp31
 70
     1
102
RTVSPropertyOp32
 70
     1
  0
XRECORD
  5
37B
102
{ACAD_REACTORS
330
37A
102
}
330
37A
100
AcDbXrecord
280
     1
102
RTVSPropertyOp0
 70
     1
102
RTVSPropertyOp1
 70
     1
102
RTVSPropertyOp2
 70
     1
102
RTVSPropertyOp3
 70
     1
102
RTVSPropertyOp4
 70
     1
102
RTVSPropertyOp5
 70
     1
102
RTVSPropertyOp6
 70
     1
102
RTVSPropertyOp7
 70
     1
102
RTVSPropertyOp8
 70
     1
102
RTVSPropertyOp9
 70
     1
102
RTVSPropertyOp10
 70
     1
102
RTVSPropertyOp11
 70
     1
102
RTVSPropertyOp12
 70
     1
102
RTVSPropertyOp13
 70
     1
102
RTVSPropertyOp14
 70
     1
102
RTVSPropertyOp15
 70
     1
102
RTVSPropertyOp16
 70
     1
102
RTVSPropertyOp17
 70
     1
102
RTVSPropertyOp18
 70
     1
102
RTVSPropertyOp19
 70
     1
102
RTVSPropertyOp20
 70
     1
102
RTVSPropertyOp21
 70
     1
102
RTVSPropertyOp22
 70
     1
102
RTVSPropertyOp23
 70
     1
102
RTVSPropertyOp24
 70
     1
102
RTVSPropertyOp25
 70
     1
102
RTVSPropertyOp26
 70
     1
102
RTVSPropertyOp27
 70
     1
102
RTVSPropertyOp28
 70
     1
102
RTVSPropertyOp29
 70
     1
102
RTVSPropertyOp30
 70
     1
102
RTVSPropertyOp31
 70
     1
102
RTVSPropertyOp32
 70
     1
  0
XRECORD
  5
379
102
{ACAD_REACTORS
330
378
102
}
330
378
100
AcDbXrecord
280
     1
102
RTVSPropertyOp0
 70
     1
102
RTVSPropertyOp1
 70
     1
102
RTVSPropertyOp2
 70
     1
102
RTVSPropertyOp3
 70
     1
102
RTVSPropertyOp4
 70
     1
102
RTVSPropertyOp5
 70
     1
102
RTVSPropertyOp6
 70
     1
102
RTVSPropertyOp7
 70
     1
102
RTVSPropertyOp8
 70
     1
102
RTVSPropertyOp9
 70
     1
102
RTVSPropertyOp10
 70
     1
102
RTVSPropertyOp11
 70
     1
102
RTVSPropertyOp12
 70
     1
102
RTVSPropertyOp13
 70
     1
102
RTVSPropertyOp14
 70
     1
102
RTVSPropertyOp15
 70
     1
102
RTVSPropertyOp16
 70
     1
102
RTVSPropertyOp17
 70
     1
102
RTVSPropertyOp18
 70
     1
102
RTVSPropertyOp19
 70
     1
102
RTVSPropertyOp20
 70
     1
102
RTVSPropertyOp21
 70
     1
102
RTVSPropertyOp22
 70
     1
102
RTVSPropertyOp23
 70
     1
102
RTVSPropertyOp24
 70
     1
102
RTVSPropertyOp25
 70
     1
102
RTVSPropertyOp26
 70
     1
102
RTVSPropertyOp27
 70
     1
102
RTVSPropertyOp28
 70
     1
102
RTVSPropertyOp29
 70
     1
102
RTVSPropertyOp30
 70
     1
102
RTVSPropertyOp31
 70
     1
102
RTVSPropertyOp32
 70
     1
  0
XRECORD
  5
37D
102
{ACAD_REACTORS
330
37C
102
}
330
37C
100
AcDbXrecord
280
     1
102
RTVSPropertyOp0
 70
     1
102
RTVSPropertyOp1
 70
     1
102
RTVSPropertyOp2
 70
     1
102
RTVSPropertyOp3
 70
     1
102
RTVSPropertyOp4
 70
     1
102
RTVSPropertyOp5
 70
     1
102
RTVSPropertyOp6
 70
     1
102
RTVSPropertyOp7
 70
     1
102
RTVSPropertyOp8
 70
     1
102
RTVSPropertyOp9
 70
     1
102
RTVSPropertyOp10
 70
     1
102
RTVSPropertyOp11
 70
     1
102
RTVSPropertyOp12
 70
     1
102
RTVSPropertyOp13
 70
     1
102
RTVSPropertyOp14
 70
     1
102
RTVSPropertyOp15
 70
     1
102
RTVSPropertyOp16
 70
     1
102
RTVSPropertyOp17
 70
     1
102
RTVSPropertyOp18
 70
     1
102
RTVSPropertyOp19
 70
     1
102
RTVSPropertyOp20
 70
     1
102
RTVSPropertyOp21
 70
     1
102
RTVSPropertyOp22
 70
     1
102
RTVSPropertyOp23
 70
     1
102
RTVSPropertyOp24
 70
     1
102
RTVSPropertyOp25
 70
     1
102
RTVSPropertyOp26
 70
     1
102
RTVSPropertyOp27
 70
     1
102
RTVSPropertyOp28
 70
     1
102
RTVSPropertyOp29
 70
     1
102
RTVSPropertyOp30
 70
     1
102
RTVSPropertyOp31
 70
     1
102
RTVSPropertyOp32
 70
     1
  0
XRECORD
  5
385
102
{ACAD_REACTORS
330
384
102
}
330
384
100
AcDbXrecord
280
     1
102
RTVSPropertyOp0
 70
     1
102
RTVSPropertyOp1
 70
     1
102
RTVSPropertyOp2
 70
     1
102
RTVSPropertyOp3
 70
     1
102
RTVSPropertyOp4
 70
     1
102
RTVSPropertyOp5
 70
     1
102
RTVSPropertyOp6
 70
     1
102
RTVSPropertyOp7
 70
     1
102
RTVSPropertyOp8
 70
     1
102
RTVSPropertyOp9
 70
     1
102
RTVSPropertyOp10
 70
     1
102
RTVSPropertyOp11
 70
     1
102
RTVSPropertyOp12
 70
     1
102
RTVSPropertyOp13
 70
     1
102
RTVSPropertyOp14
 70
     1
102
RTVSPropertyOp15
 70
     1
102
RTVSPropertyOp16
 70
     1
102
RTVSPropertyOp17
 70
     1
102
RTVSPropertyOp18
 70
     1
102
RTVSPropertyOp19
 70
     1
102
RTVSPropertyOp20
 70
     1
102
RTVSPropertyOp21
 70
     1
102
RTVSPropertyOp22
 70
     1
102
RTVSPropertyOp23
 70
     1
102
RTVSPropertyOp24
 70
     1
102
RTVSPropertyOp25
 70
     1
102
RTVSPropertyOp26
 70
     1
102
RTVSPropertyOp27
 70
     1
102
RTVSPropertyOp28
 70
     1
102
RTVSPropertyOp29
 70
     1
102
RTVSPropertyOp30
 70
     1
102
RTVSPropertyOp31
 70
     1
102
RTVSPropertyOp32
 70
     1
  0
XRECORD
  5
38D
102
{ACAD_REACTORS
330
38C
102
}
330
38C
100
AcDbXrecord
280
     1
102
RTVSPropertyOp0
 70
     1
102
RTVSPropertyOp1
 70
     1
102
RTVSPropertyOp2
 70
     1
102
RTVSPropertyOp3
 70
     1
102
RTVSPropertyOp4
 70
     1
102
RTVSPropertyOp5
 70
     1
102
RTVSPropertyOp6
 70
     1
102
RTVSPropertyOp7
 70
     1
102
RTVSPropertyOp8
 70
     1
102
RTVSPropertyOp9
 70
     1
102
RTVSPropertyOp10
 70
     1
102
RTVSPropertyOp11
 70
     1
102
RTVSPropertyOp12
 70
     1
102
RTVSPropertyOp13
 70
     1
102
RTVSPropertyOp14
 70
     1
102
RTVSPropertyOp15
 70
     1
102
RTVSPropertyOp16
 70
     1
102
RTVSPropertyOp17
 70
     1
102
RTVSPropertyOp18
 70
     1
102
RTVSPropertyOp19
 70
     1
102
RTVSPropertyOp20
 70
     1
102
RTVSPropertyOp21
 70
     1
102
RTVSPropertyOp22
 70
     1
102
RTVSPropertyOp23
 70
     1
102
RTVSPropertyOp24
 70
     1
102
RTVSPropertyOp25
 70
     1
102
RTVSPropertyOp26
 70
     1
102
RTVSPropertyOp27
 70
     1
102
RTVSPropertyOp28
 70
     1
102
RTVSPropertyOp29
 70
     1
102
RTVSPropertyOp30
 70
     1
102
RTVSPropertyOp31
 70
     1
102
RTVSPropertyOp32
 70
     1
  0
XRECORD
  5
381
102
{ACAD_REACTORS
330
380
102
}
330
380
100
AcDbXrecord
280
     1
102
RTVSPropertyOp0
 70
     1
102
RTVSPropertyOp1
 70
     1
102
RTVSPropertyOp2
 70
     1
102
RTVSPropertyOp3
 70
     1
102
RTVSPropertyOp4
 70
     1
102
RTVSPropertyOp5
 70
     1
102
RTVSPropertyOp6
 70
     1
102
RTVSPropertyOp7
 70
     1
102
RTVSPropertyOp8
 70
     1
102
RTVSPropertyOp9
 70
     1
102
RTVSPropertyOp10
 70
     1
102
RTVSPropertyOp11
 70
     1
102
RTVSPropertyOp12
 70
     1
102
RTVSPropertyOp13
 70
     1
102
RTVSPropertyOp14
 70
     1
102
RTVSPropertyOp15
 70
     1
102
RTVSPropertyOp16
 70
     1
102
RTVSPropertyOp17
 70
     1
102
RTVSPropertyOp18
 70
     1
102
RTVSPropertyOp19
 70
     1
102
RTVSPropertyOp20
 70
     1
102
RTVSPropertyOp21
 70
     1
102
RTVSPropertyOp22
 70
     1
102
RTVSPropertyOp23
 70
     1
102
RTVSPropertyOp24
 70
     1
102
RTVSPropertyOp25
 70
     1
102
RTVSPropertyOp26
 70
     1
102
RTVSPropertyOp27
 70
     1
102
RTVSPropertyOp28
 70
     1
102
RTVSPropertyOp29
 70
     1
102
RTVSPropertyOp30
 70
     1
102
RTVSPropertyOp31
 70
     1
102
RTVSPropertyOp32
 70
     1
  0
XRECORD
  5
383
102
{ACAD_REACTORS
330
382
102
}
330
382
100
AcDbXrecord
280
     1
102
RTVSPropertyOp0
 70
     1
102
RTVSPropertyOp1
 70
     1
102
RTVSPropertyOp2
 70
     1
102
RTVSPropertyOp3
 70
     1
102
RTVSPropertyOp4
 70
     1
102
RTVSPropertyOp5
 70
     1
102
RTVSPropertyOp6
 70
     1
102
RTVSPropertyOp7
 70
     1
102
RTVSPropertyOp8
 70
     1
102
RTVSPropertyOp9
 70
     1
102
RTVSPropertyOp10
 70
     1
102
RTVSPropertyOp11
 70
     1
102
RTVSPropertyOp12
 70
     1
102
RTVSPropertyOp13
 70
     1
102
RTVSPropertyOp14
 70
     1
102
RTVSPropertyOp15
 70
     1
102
RTVSPropertyOp16
 70
     1
102
RTVSPropertyOp17
 70
     1
102
RTVSPropertyOp18
 70
     1
102
RTVSPropertyOp19
 70
     1
102
RTVSPropertyOp20
 70
     1
102
RTVSPropertyOp21
 70
     1
102
RTVSPropertyOp22
 70
     1
102
RTVSPropertyOp23
 70
     1
102
RTVSPropertyOp24
 70
     1
102
RTVSPropertyOp25
 70
     1
102
RTVSPropertyOp26
 70
     1
102
RTVSPropertyOp27
 70
     1
102
RTVSPropertyOp28
 70
     1
102
RTVSPropertyOp29
 70
     1
102
RTVSPropertyOp30
 70
     1
102
RTVSPropertyOp31
 70
     1
102
RTVSPropertyOp32
 70
     1
  0
XRECORD
  5
38B
102
{ACAD_REACTORS
330
38A
102
}
330
38A
100
AcDbXrecord
280
     1
102
RTVSPropertyOp0
 70
     1
102
RTVSPropertyOp1
 70
     1
102
RTVSPropertyOp2
 70
     1
102
RTVSPropertyOp3
 70
     1
102
RTVSPropertyOp4
 70
     1
102
RTVSPropertyOp5
 70
     1
102
RTVSPropertyOp6
 70
     1
102
RTVSPropertyOp7
 70
     1
102
RTVSPropertyOp8
 70
     1
102
RTVSPropertyOp9
 70
     1
102
RTVSPropertyOp10
 70
     1
102
RTVSPropertyOp11
 70
     1
102
RTVSPropertyOp12
 70
     1
102
RTVSPropertyOp13
 70
     1
102
RTVSPropertyOp14
 70
     1
102
RTVSPropertyOp15
 70
     1
102
RTVSPropertyOp16
 70
     1
102
RTVSPropertyOp17
 70
     1
102
RTVSPropertyOp18
 70
     1
102
RTVSPropertyOp19
 70
     1
102
RTVSPropertyOp20
 70
     1
102
RTVSPropertyOp21
 70
     1
102
RTVSPropertyOp22
 70
     1
102
RTVSPropertyOp23
 70
     1
102
RTVSPropertyOp24
 70
     1
102
RTVSPropertyOp25
 70
     1
102
RTVSPropertyOp26
 70
     1
102
RTVSPropertyOp27
 70
     1
102
RTVSPropertyOp28
 70
     1
102
RTVSPropertyOp29
 70
     1
102
RTVSPropertyOp30
 70
     1
102
RTVSPropertyOp31
 70
     1
102
RTVSPropertyOp32
 70
     1
  0
XRECORD
  5
36F
102
{ACAD_REACTORS
330
36E
102
}
330
36E
100
AcDbXrecord
280
     1
102
RTVSPropertyOp0
 70
     1
102
RTVSPropertyOp1
 70
     1
102
RTVSPropertyOp2
 70
     1
102
RTVSPropertyOp3
 70
     1
102
RTVSPropertyOp4
 70
     1
102
RTVSPropertyOp5
 70
     1
102
RTVSPropertyOp6
 70
     1
102
RTVSPropertyOp7
 70
     1
102
RTVSPropertyOp8
 70
     1
102
RTVSPropertyOp9
 70
     1
102
RTVSPropertyOp10
 70
     1
102
RTVSPropertyOp11
 70
     1
102
RTVSPropertyOp12
 70
     1
102
RTVSPropertyOp13
 70
     1
102
RTVSPropertyOp14
 70
     1
102
RTVSPropertyOp15
 70
     1
102
RTVSPropertyOp16
 70
     1
102
RTVSPropertyOp17
 70
     1
102
RTVSPropertyOp18
 70
     1
102
RTVSPropertyOp19
 70
     1
102
RTVSPropertyOp20
 70
     1
102
RTVSPropertyOp21
 70
     1
102
RTVSPropertyOp22
 70
     1
102
RTVSPropertyOp23
 70
     1
102
RTVSPropertyOp24
 70
     1
102
RTVSPropertyOp25
 70
     1
102
RTVSPropertyOp26
 70
     1
102
RTVSPropertyOp27
 70
     1
102
RTVSPropertyOp28
 70
     1
102
RTVSPropertyOp29
 70
     1
102
RTVSPropertyOp30
 70
     1
102
RTVSPropertyOp31
 70
     1
102
RTVSPropertyOp32
 70
     1
  0
XRECORD
  5
371
102
{ACAD_REACTORS
330
370
102
}
330
370
100
AcDbXrecord
280
     1
102
RTVSPropertyOp0
 70
     1
102
RTVSPropertyOp1
 70
     1
102
RTVSPropertyOp2
 70
     1
102
RTVSPropertyOp3
 70
     1
102
RTVSPropertyOp4
 70
     1
102
RTVSPropertyOp5
 70
     1
102
RTVSPropertyOp6
 70
     1
102
RTVSPropertyOp7
 70
     1
102
RTVSPropertyOp8
 70
     1
102
RTVSPropertyOp9
 70
     1
102
RTVSPropertyOp10
 70
     1
102
RTVSPropertyOp11
 70
     1
102
RTVSPropertyOp12
 70
     1
102
RTVSPropertyOp13
 70
     1
102
RTVSPropertyOp14
 70
     1
102
RTVSPropertyOp15
 70
     1
102
RTVSPropertyOp16
 70
     1
102
RTVSPropertyOp17
 70
     1
102
RTVSPropertyOp18
 70
     1
102
RTVSPropertyOp19
 70
     1
102
RTVSPropertyOp20
 70
     1
102
RTVSPropertyOp21
 70
     1
102
RTVSPropertyOp22
 70
     1
102
RTVSPropertyOp23
 70
     1
102
RTVSPropertyOp24
 70
     1
102
RTVSPropertyOp25
 70
     1
102
RTVSPropertyOp26
 70
     1
102
RTVSPropertyOp27
 70
     1
102
RTVSPropertyOp28
 70
     1
102
RTVSPropertyOp29
 70
     1
102
RTVSPropertyOp30
 70
     1
102
RTVSPropertyOp31
 70
     1
102
RTVSPropertyOp32
 70
     1
  0
XRECORD
  5
373
102
{ACAD_REACTORS
330
372
102
}
330
372
100
AcDbXrecord
280
     1
102
RTVSPropertyOp0
 70
     1
102
RTVSPropertyOp1
 70
     1
102
RTVSPropertyOp2
 70
     1
102
RTVSPropertyOp3
 70
     1
102
RTVSPropertyOp4
 70
     1
102
RTVSPropertyOp5
 70
     1
102
RTVSPropertyOp6
 70
     1
102
RTVSPropertyOp7
 70
     1
102
RTVSPropertyOp8
 70
     1
102
RTVSPropertyOp9
 70
     1
102
RTVSPropertyOp10
 70
     1
102
RTVSPropertyOp11
 70
     1
102
RTVSPropertyOp12
 70
     1
102
RTVSPropertyOp13
 70
     1
102
RTVSPropertyOp14
 70
     1
102
RTVSPropertyOp15
 70
     1
102
RTVSPropertyOp16
 70
     1
102
RTVSPropertyOp17
 70
     1
102
RTVSPropertyOp18
 70
     1
102
RTVSPropertyOp19
 70
     1
102
RTVSPropertyOp20
 70
     1
102
RTVSPropertyOp21
 70
     1
102
RTVSPropertyOp22
 70
     1
102
RTVSPropertyOp23
 70
     1
102
RTVSPropertyOp24
 70
     1
102
RTVSPropertyOp25
 70
     1
102
RTVSPropertyOp26
 70
     1
102
RTVSPropertyOp27
 70
     1
102
RTVSPropertyOp28
 70
     1
102
RTVSPropertyOp29
 70
     1
102
RTVSPropertyOp30
 70
     1
102
RTVSPropertyOp31
 70
     1
102
RTVSPropertyOp32
 70
     1
  0
XRECORD
  5
375
102
{ACAD_REACTORS
330
374
102
}
330
374
100
AcDbXrecord
280
     1
102
RTVSPropertyOp0
 70
     1
102
RTVSPropertyOp1
 70
     1
102
RTVSPropertyOp2
 70
     1
102
RTVSPropertyOp3
 70
     1
102
RTVSPropertyOp4
 70
     1
102
RTVSPropertyOp5
 70
     1
102
RTVSPropertyOp6
 70
     1
102
RTVSPropertyOp7
 70
     1
102
RTVSPropertyOp8
 70
     1
102
RTVSPropertyOp9
 70
     1
102
RTVSPropertyOp10
 70
     1
102
RTVSPropertyOp11
 70
     1
102
RTVSPropertyOp12
 70
     1
102
RTVSPropertyOp13
 70
     1
102
RTVSPropertyOp14
 70
     1
102
RTVSPropertyOp15
 70
     1
102
RTVSPropertyOp16
 70
     1
102
RTVSPropertyOp17
 70
     1
102
RTVSPropertyOp18
 70
     1
102
RTVSPropertyOp19
 70
     1
102
RTVSPropertyOp20
 70
     1
102
RTVSPropertyOp21
 70
     1
102
RTVSPropertyOp22
 70
     1
102
RTVSPropertyOp23
 70
     1
102
RTVSPropertyOp24
 70
     1
102
RTVSPropertyOp25
 70
     1
102
RTVSPropertyOp26
 70
     1
102
RTVSPropertyOp27
 70
     1
102
RTVSPropertyOp28
 70
     1
102
RTVSPropertyOp29
 70
     1
102
RTVSPropertyOp30
 70
     1
102
RTVSPropertyOp31
 70
     1
102
RTVSPropertyOp32
 70
     1
  0
XRECORD
  5
389
102
{ACAD_REACTORS
330
388
102
}
330
388
100
AcDbXrecord
280
     1
102
RTVSPropertyOp0
 70
     1
102
RTVSPropertyOp1
 70
     1
102
RTVSPropertyOp2
 70
     1
102
RTVSPropertyOp3
 70
     1
102
RTVSPropertyOp4
 70
     1
102
RTVSPropertyOp5
 70
     1
102
RTVSPropertyOp6
 70
     1
102
RTVSPropertyOp7
 70
     1
102
RTVSPropertyOp8
 70
     1
102
RTVSPropertyOp9
 70
     1
102
RTVSPropertyOp10
 70
     1
102
RTVSPropertyOp11
 70
     1
102
RTVSPropertyOp12
 70
     1
102
RTVSPropertyOp13
 70
     1
102
RTVSPropertyOp14
 70
     1
102
RTVSPropertyOp15
 70
     1
102
RTVSPropertyOp16
 70
     1
102
RTVSPropertyOp17
 70
     1
102
RTVSPropertyOp18
 70
     1
102
RTVSPropertyOp19
 70
     1
102
RTVSPropertyOp20
 70
     1
102
RTVSPropertyOp21
 70
     1
102
RTVSPropertyOp22
 70
     1
102
RTVSPropertyOp23
 70
     1
102
RTVSPropertyOp24
 70
     1
102
RTVSPropertyOp25
 70
     1
102
RTVSPropertyOp26
 70
     1
102
RTVSPropertyOp27
 70
     1
102
RTVSPropertyOp28
 70
     1
102
RTVSPropertyOp29
 70
     1
102
RTVSPropertyOp30
 70
     1
102
RTVSPropertyOp31
 70
     1
102
RTVSPropertyOp32
 70
     1
  0
XRECORD
  5
37F
102
{ACAD_REACTORS
330
37E
102
}
330
37E
100
AcDbXrecord
280
     1
102
RTVSPropertyOp0
 70
     1
102
RTVSPropertyOp1
 70
     1
102
RTVSPropertyOp2
 70
     1
102
RTVSPropertyOp3
 70
     1
102
RTVSPropertyOp4
 70
     1
102
RTVSPropertyOp5
 70
     1
102
RTVSPropertyOp6
 70
     1
102
RTVSPropertyOp7
 70
     1
102
RTVSPropertyOp8
 70
     1
102
RTVSPropertyOp9
 70
     1
102
RTVSPropertyOp10
 70
     1
102
RTVSPropertyOp11
 70
     1
102
RTVSPropertyOp12
 70
     1
102
RTVSPropertyOp13
 70
     1
102
RTVSPropertyOp14
 70
     1
102
RTVSPropertyOp15
 70
     1
102
RTVSPropertyOp16
 70
     1
102
RTVSPropertyOp17
 70
     1
102
RTVSPropertyOp18
 70
     1
102
RTVSPropertyOp19
 70
     1
102
RTVSPropertyOp20
 70
     1
102
RTVSPropertyOp21
 70
     1
102
RTVSPropertyOp22
 70
     1
102
RTVSPropertyOp23
 70
     1
102
RTVSPropertyOp24
 70
     1
102
RTVSPropertyOp25
 70
     1
102
RTVSPropertyOp26
 70
     1
102
RTVSPropertyOp27
 70
     1
102
RTVSPropertyOp28
 70
     1
102
RTVSPropertyOp29
 70
     1
102
RTVSPropertyOp30
 70
     1
102
RTVSPropertyOp31
 70
     1
102
RTVSPropertyOp32
 70
     1
  0
XRECORD
  5
387
102
{ACAD_REACTORS
330
386
102
}
330
386
100
AcDbXrecord
280
     1
102
RTVSPropertyOp0
 70
     1
102
RTVSPropertyOp1
 70
     1
102
RTVSPropertyOp2
 70
     1
102
RTVSPropertyOp3
 70
     1
102
RTVSPropertyOp4
 70
     1
102
RTVSPropertyOp5
 70
     1
102
RTVSPropertyOp6
 70
     1
102
RTVSPropertyOp7
 70
     1
102
RTVSPropertyOp8
 70
     1
102
RTVSPropertyOp9
 70
     1
102
RTVSPropertyOp10
 70
     1
102
RTVSPropertyOp11
 70
     1
102
RTVSPropertyOp12
 70
     1
102
RTVSPropertyOp13
 70
     1
102
RTVSPropertyOp14
 70
     1
102
RTVSPropertyOp15
 70
     1
102
RTVSPropertyOp16
 70
     1
102
RTVSPropertyOp17
 70
     1
102
RTVSPropertyOp18
 70
     1
102
RTVSPropertyOp19
 70
     1
102
RTVSPropertyOp20
 70
     1
102
RTVSPropertyOp21
 70
     1
102
RTVSPropertyOp22
 70
     1
102
RTVSPropertyOp23
 70
     1
102
RTVSPropertyOp24
 70
     1
102
RTVSPropertyOp25
 70
     1
102
RTVSPropertyOp26
 70
     1
102
RTVSPropertyOp27
 70
     1
102
RTVSPropertyOp28
 70
     1
102
RTVSPropertyOp29
 70
     1
102
RTVSPropertyOp30
 70
     1
102
RTVSPropertyOp31
 70
     1
102
RTVSPropertyOp32
 70
     1
  0
ENDSEC
  0
EOF
